<?xml version="1.0" standalone="no"?>
<!DOCTYPE svg PUBLIC "-//W3C//DTD SVG 1.1//EN" "http://www.w3.org/Graphics/SVG/1.1/DTD/svg11.dtd" >
<svg xmlns="http://www.w3.org/2000/svg" xmlns:xlink="http://www.w3.org/1999/xlink" version="1.1">
<metadata>
Created by FontForge 20201107 at Wed May  5 05:59:33 2021
 By 
Copyright 2009 The Italianno Project Authors (https://github.com/googlefonts/italianno)
</metadata>
<defs>
<font id="Italianno-Regular" horiz-adv-x="0" >
  <font-face 
    font-family="Italianno"
    font-weight="400"
    font-stretch="normal"
    units-per-em="1000"
    panose-1="0 0 0 0 0 0 0 0 0 0"
    ascent="800"
    descent="-200"
    x-height="264.5"
    cap-height="546"
    bbox="-463.286 -552.432 1264 876"
    underline-thickness="15"
    underline-position="-108"
    unicode-range="U+0020-FB02"
  />
<missing-glyph horiz-adv-x="398" 
d="M343 12h-288v577h288v-577zM93 553v-506h212v506h-212z" />
    <glyph glyph-name="fi" unicode="fi" horiz-adv-x="373" 
d="M-198 -226q-39 0 -65.5 12.5t-35.5 37.5q-1 3 -1.5 6t-0.5 7q0 15 7 33.5t15 39.5q3 6 7 6q7 0 4 -10q-7 -15 -7 -32q0 -34 30 -54t68 -20q15 0 30.5 3.5t29.5 10.5q47 24 77 64t53 83q35 67 60.5 140.5t54.5 145.5h-23q-5 0 -11 -1t-11 -2l-2 1q2 11 19.5 19.5t27.5 8.5
h12q11 27 29.5 64t38 73.5t34.5 61.5q42 69 92 104t111 35q12 0 23.5 -7.5t10.5 -22.5l-3 -36q0 -3 -5 -3q-2 0 -2 1q-3 18 -18.5 28t-36.5 10q-15 0 -32 -6q-28 -9 -53.5 -32.5t-54.5 -73.5q-14 -25 -29 -59t-30 -70t-29 -67q24 0 47 -0.5t43 -0.5q30 0 55 2t44 9l14 5
q2 1 6 1q2 0 2 -2q0 -3 -4 -7q-6 -7 -21 -34t-31.5 -59.5t-29.5 -58.5q-15 -27 -25 -52t-10 -36q0 -14 14 -14q13 0 34 16t43 38.5t38 41.5q5 6 12 14.5t9 10.5q6 -6 -1 -17.5t-12 -16.5q-22 -26 -47 -53t-54 -45t-64 -18q-10 0 -17 4t-7 15q0 14 7.5 33t17 38t14.5 31
q7 14 17.5 36.5t20 43t13.5 28.5q5 10 6.5 17.5l2.5 12.5q-20 -4 -48 -6.5t-55 -2.5h-45q-22 -55 -41.5 -104.5t-42.5 -96.5q-19 -42 -47 -89t-64 -89t-80.5 -68t-97.5 -26zM422 382q-15 0 -21 9q-1 3 -2.5 6t-1.5 6q0 17 16 27q11 6 20 6q15 0 21 -9q2 -3 3 -6t1 -6
q0 -17 -16 -27q-10 -6 -20 -6z" />
    <glyph glyph-name="fl" unicode="fl" horiz-adv-x="394" 
d="M-198 -226q-39 0 -65.5 12.5t-35.5 37.5q-1 3 -1.5 6t-0.5 7q0 15 7 33.5t15 39.5q3 6 7 6q7 0 4 -10q-7 -15 -7 -32q0 -34 30 -54t68 -20q15 0 30.5 3.5t29.5 10.5q47 24 77 64t53 83q35 67 60.5 140.5t54.5 145.5h-23q-5 0 -11 -1t-11 -2l-2 1q2 11 19.5 19.5t27.5 8.5
h12q11 27 29.5 64t38 73.5t34.5 61.5q42 69 92 104t111 35q12 0 23.5 -7.5t10.5 -22.5l-1 -16q17 7 32 18.5t30 20.5t32 9q15 -1 20.5 -11t5.5 -22q0 -7 -1 -13t-3 -11q-19 -56 -51.5 -108t-68 -97t-64.5 -81q-33 -42 -64.5 -80t-71.5 -75q-4 -13 -7.5 -23.5t-3.5 -24.5
q0 -18 8 -30t29 -12h6t7 1q17 3 36.5 19t39.5 37t36 40q7 8 13 16t8 10q1 -1 2 -3.5t0 -4.5q-1 -7 -4.5 -13.5t-8.5 -11.5q-7 -9 -20.5 -25.5t-30.5 -34.5q-19 -19 -47 -38t-57 -19q-30 0 -41 14.5t-11 35.5q0 17 5 35.5t11 35.5q12 32 26.5 62t29.5 59q18 36 39.5 78.5
t44 86t44 81.5t39.5 65q-5 14 -19.5 22t-32.5 8q-16 0 -33 -6q-28 -9 -53.5 -32.5t-54.5 -73.5q-14 -25 -29 -59t-30 -70t-29 -67h72q7 0 14.5 0.5t14.5 1.5q0 -4 -5.5 -7.5t-9.5 -5.5q-25 -13 -47 -14.5t-50 -0.5q-22 -55 -41.5 -104.5t-42.5 -96.5q-19 -42 -47 -89
t-64 -89t-80.5 -68t-97.5 -26zM285 145q32 30 60.5 65.5t55.5 72.5q28 37 60 81t60.5 93t42.5 99q3 12 3 20q0 12 -7 12q-10 0 -29 -19t-44.5 -59t-54 -90t-56 -102t-51.5 -97.5t-40 -75.5z" />
    <glyph glyph-name="f_f" unicode="ff" horiz-adv-x="364" 
d="M-198 -226q-39 0 -65.5 12.5t-35.5 37.5q-1 3 -1.5 6t-0.5 7q0 15 7 33.5t15 39.5q3 6 7 6q7 0 4 -10q-7 -15 -7 -32q0 -34 30 -54t68 -20q15 0 30.5 3.5t29.5 10.5q47 24 77 64t53 83q35 67 60.5 140.5t54.5 145.5q-22 0 -31 -1t-14 -2l-2 1q2 11 19.5 19.5t27.5 8.5h12
q11 27 29.5 64t38 73.5t34.5 61.5q42 69 97 100.5t116 31.5q12 0 23.5 -7.5t10.5 -22.5l-2 -22q62 59 140 59q12 0 23.5 -7.5t10.5 -22.5l-3 -36q0 -3 -5 -3q-2 0 -2 1q-3 18 -18.5 28t-36.5 10q-15 0 -32 -6q-28 -9 -53.5 -32.5t-54.5 -73.5q-14 -25 -29 -59t-30 -70
t-29 -67h72q7 0 14.5 0.5t14.5 1.5q0 -10 -14.5 -15.5t-35 -8t-38.5 -3.5t-24 -1q-22 -55 -41.5 -104.5t-42.5 -96.5q-19 -42 -47 -89t-64 -89t-80.5 -68t-97.5 -26q-59 0 -86 27q-22 -13 -46 -20t-50 -7zM274 469q-13 -24 -28.5 -58.5t-31 -70.5t-28.5 -67h136
q11 27 29.5 64t38 73.5t34.5 61.5q26 42 54 72q-3 18 -21.5 28.5t-41.5 10.5q-21 0 -38 -7q-27 -11 -50.5 -34t-52.5 -73zM4 -200q33 0 61 14q47 24 77 64t53 83q35 67 60.5 140.5t54.5 145.5h-134q-21 -53 -42 -104t-43 -97q-17 -36 -40.5 -77.5t-52.5 -79.5t-65 -66
q28 -23 71 -23z" />
    <glyph glyph-name="f_f_i" unicode="ffi" horiz-adv-x="556" 
d="M-198 -226q-39 0 -65.5 12.5t-35.5 37.5q-1 3 -1.5 6t-0.5 7q0 15 7 33.5t15 39.5q3 6 7 6q7 0 4 -10q-7 -15 -7 -32q0 -34 30 -54t68 -20q15 0 30.5 3.5t29.5 10.5q47 24 77 64t53 83q35 67 60.5 140.5t54.5 145.5q-22 0 -31 -1t-14 -2l-2 1q2 11 19.5 19.5t27.5 8.5h12
q11 27 29.5 64t38 73.5t34.5 61.5q42 69 97 100.5t116 31.5q12 0 23.5 -7.5t10.5 -22.5l-2 -22q62 59 140 59q12 0 23.5 -7.5t10.5 -22.5l-3 -36q0 -3 -5 -3q-2 0 -2 1q-3 18 -18.5 28t-36.5 10q-15 0 -32 -6q-28 -9 -53.5 -32.5t-54.5 -73.5q-13 -24 -29 -58.5t-31.5 -71.5
t-29.5 -68q31 0 65 1t64.5 3.5t51.5 6t25 6.5q3 3 6 3q2 0 2.5 -3.5t-2.5 -7.5q-6 -7 -21 -34t-31.5 -59.5t-30.5 -58.5q-14 -27 -24 -52t-10 -36q0 -14 14 -14q13 0 33.5 16t41.5 38.5t37 41.5l22 25q2 -2 2 -7q-1 -7 -5 -13.5t-8 -11.5q-21 -26 -46 -53.5t-55 -46
t-65 -18.5q-10 0 -16.5 4t-6.5 15q0 14 7.5 33t17 38t14.5 31q5 10 13.5 28.5t17.5 38.5t16.5 36.5t10.5 22.5q1 2 -6 4t-34 2q-17 0 -44 -1t-66 -3q-21 -53 -41 -103t-42 -97q-19 -42 -47 -89t-64 -89t-80.5 -68t-97.5 -26q-59 0 -86 27q-22 -13 -46 -20t-50 -7zM274 469
q-13 -24 -28.5 -58.5t-31 -70.5t-28.5 -67h136q11 27 29.5 64t38 73.5t34.5 61.5q26 42 54 72q-3 18 -21.5 28.5t-41.5 10.5q-21 0 -38 -7q-27 -11 -50.5 -34t-52.5 -73zM606 382q-14 0 -20 9q-4 5 -4 13q0 16 15 26q11 6 20 6q15 0 21 -9q4 -5 4 -13q0 -16 -16 -26
q-9 -6 -20 -6zM4 -200q33 0 61 14q47 24 77 64t53 83q35 67 60.5 140.5t54.5 145.5h-134q-21 -53 -42 -104t-43 -97q-17 -36 -40.5 -77.5t-52.5 -79.5t-65 -66q28 -23 71 -23z" />
    <glyph glyph-name="f_f_l" unicode="ffl" horiz-adv-x="578" 
d="M-198 -226q-39 0 -65.5 12.5t-35.5 37.5q-1 3 -1.5 6t-0.5 7q0 15 7 33.5t15 39.5q3 6 7 6q7 0 4 -10q-7 -15 -7 -32q0 -34 30 -54t68 -20q15 0 30.5 3.5t29.5 10.5q47 24 77 64t53 83q35 67 60.5 140.5t54.5 145.5h-23q-5 0 -11 -1t-11 -2l-2 1q2 11 19.5 19.5t27.5 8.5
h12q11 27 29.5 64t38 73.5t34.5 61.5q42 69 92 104t111 35q12 0 23.5 -7.5t10.5 -22.5l-3 -36q0 -3 -5 -3q-2 0 -2 1q-3 18 -18.5 28t-36.5 10q-15 0 -32 -6q-28 -9 -53.5 -32.5t-54.5 -73.5q-14 -25 -29 -59t-30 -70t-29 -67h135l22 48q19 39 42 81t39 70q42 69 92 104
t111 35q12 0 23.5 -7.5t10.5 -22.5l-2 -18l2 2q17 7 32.5 18t31 20.5t32.5 9.5q14 -1 19.5 -11t5.5 -22q0 -7 -1 -13t-3 -11q-19 -56 -51.5 -108t-68 -97t-64.5 -81q-33 -42 -64.5 -80t-70.5 -75q-5 -13 -8.5 -23.5t-3.5 -24.5q0 -18 8 -30t29 -12h6t7 1q17 3 37 19t40 37
t36 40l21 26q7 -7 -0.5 -17.5l-12.5 -17.5q-7 -9 -20 -24.5t-30 -33.5q-19 -19 -47 -38t-57 -19t-40.5 14t-11.5 35q0 20 7 41.5t14 40.5q5 11 14 34.5t40 80.5q24 48 52.5 105.5t57.5 111t52 88.5q-4 15 -19 23t-34 8q-8 0 -16 -1t-16 -4q-28 -9 -53.5 -32.5t-54.5 -73.5
q-14 -25 -29 -59t-30 -70t-29 -67h72q7 0 14.5 0.5t14.5 1.5q0 -4 -5.5 -7.5t-9.5 -5.5q-25 -13 -47 -14.5t-50 -0.5q-22 -55 -41.5 -104.5t-42.5 -96.5q-19 -42 -47 -89t-64 -89t-80.5 -68t-97.5 -26q-28 0 -50 6.5t-36 20.5q-22 -13 -46 -20t-50 -7zM469 145
q32 30 61 65.5t55 72.5q28 37 60 81t60.5 93t43.5 99q3 11 3 19q0 13 -8 13q-10 0 -29 -19t-44.5 -59t-54 -90t-56 -102t-51.5 -97.5t-40 -75.5zM5 -200q30 0 60 14q47 24 77 64t53 83q32 59 54.5 124.5t47.5 129.5l12 31q-21 0 -50.5 0.5t-53.5 0.5h-30
q-22 -55 -41.5 -104.5t-42.5 -96.5q-17 -36 -40.5 -77.5t-52.5 -79.5t-65 -66q30 -23 72 -23z" />
    <glyph glyph-name=".notdef" horiz-adv-x="398" 
d="M343 12h-288v577h288v-577zM93 553v-506h212v506h-212z" />
    <glyph glyph-name=".null" 
 />
    <glyph glyph-name="nonmarkingreturn" horiz-adv-x="333" 
 />
    <glyph glyph-name="space" unicode=" " horiz-adv-x="169" 
 />
    <glyph glyph-name="exclam" unicode="!" horiz-adv-x="295" 
d="M168 127q3 7 14 36t27 70.5t34 88t34.5 90t29.5 75.5q5 13 10.5 29.5t8.5 23.5q13 3 36 10.5t43 23.5h1q3 0 6.5 -8t0.5 -10q-4 -3 -13 -17.5t-17 -28.5t-10 -18q-30 -58 -59.5 -117t-55 -109.5t-42.5 -85t-21 -42.5q-3 -6 -15.5 -11.5t-11.5 0.5zM138 -6q-11 0 -21 7.5
t-16 14.5q-1 2 7.5 8.5t19 12.5t11.5 5q8 -4 16 -8.5t17 -3.5h4q5 0 5 -3t-7 -10q-9 -7 -18.5 -15t-17.5 -8z" />
    <glyph glyph-name="quotedbl" unicode="&#x22;" horiz-adv-x="168" 
d="M216 428q-9 0 -4 11q13 33 21.5 68.5t15.5 65.5q0 6 10.5 14t24.5 14.5t24 9t8 -2.5q-11 -36 -35.5 -81t-44.5 -82q-9 -17 -20 -17zM111 428q-9 0 -4 11q13 33 21.5 68.5t15.5 65.5q0 6 10.5 14t24 14.5t24 9t8.5 -2.5q-12 -36 -36 -81t-44 -82q-9 -17 -20 -17z" />
    <glyph glyph-name="numbersign" unicode="#" horiz-adv-x="579" 
d="M74 40q-13 0 -12 6q8 20 29 59.5t49 88.5q-38 -1 -73.5 -1.5t-53.5 -2.5q-3 0 3.5 9.5t16.5 18.5t15 8q9 -1 41 -2t68 -2q14 23 28.5 46.5t29.5 45.5q-40 0 -78.5 -0.5t-58.5 -2.5q-3 0 3.5 9t16 18.5t14.5 8.5q11 -1 47 -2.5t75 -1.5q34 51 66 93.5t54 63.5q2 2 12 -0.5
t19 -5.5t8 -4q-22 -21 -52.5 -60.5t-63.5 -87.5h43h41t54 1q34 51 66 93t54 64q2 2 12.5 -0.5t19.5 -5.5t8 -4q-22 -21 -52.5 -60t-63.5 -87q40 1 72.5 1.5t43.5 0.5q3 0 -3.5 -9t-16 -18t-15.5 -9q-9 1 -38 2t-64 2q-15 -22 -30 -45t-29 -45q44 0 81.5 0.5t49.5 1.5
q3 0 -3.5 -9t-16 -18t-15.5 -9q-10 1 -43.5 1.5t-71.5 1.5q-29 -46 -53 -85t-38 -62q-3 -5 -14 -5q-4 0 -8 1.5t-3 4.5q8 23 29 62t48 85q-22 1 -40 1h-28h-74q-29 -46 -53.5 -86t-38.5 -63q-3 -5 -13 -5zM197 222h142l28 46t29 46q-25 0 -46 0.5t-32 0.5h-60
q-16 -23 -31 -46.5t-30 -46.5z" />
    <glyph glyph-name="dollar" unicode="$" horiz-adv-x="313" 
d="M91 -49q6 20 16 49t23 64q-34 5 -57 25.5t-23 57.5q0 23 8.5 44t30.5 34q1 1 4 1q4 0 5.5 -2.5t-0.5 -4.5q-7 -9 -12 -22q-4 -12 -4 -26q0 -21 9 -38q16 -32 48 -45q14 39 31 82l34 86q-16 19 -28 43t-12 49q0 19 7.5 37.5t26.5 37.5q17 17 39.5 27.5t45.5 10.5h2
q7 15 12 27.5l9 22.5q2 5 13.5 8.5t9.5 -1.5l-8 -20t-15 -38q22 -2 37.5 -12.5t15.5 -38.5q0 -16 -5.5 -34t-12.5 -32q-4 -8 -13 -12t-7 6q2 8 3.5 18.5t1.5 20.5q0 15 -4 26q-9 22 -27 29q-10 -27 -22 -60t-25 -69q9 -10 17.5 -19.5t14.5 -17.5q27 -36 27 -73t-21 -66
t-54.5 -46t-69.5 -18q-21 -59 -32 -96q0 -1 -10 -5.5t-19.5 -8t-9.5 -1.5zM230 322q12 32 23.5 60.5t21.5 53.5q-25 2 -47.5 -16t-22.5 -47v-6t1 -6q2 -9 8.5 -18.5t15.5 -20.5zM168 81q7 0 13.5 0.5t13.5 1.5q24 5 44 27t20 54q0 17 -8.5 35t-27.5 37l-28 -80t-27 -75z" />
    <glyph glyph-name="percent" unicode="%" horiz-adv-x="632" 
d="M85 -34q-7 0 -12 2.5t-1 6.5q37 46 88.5 107.5t111.5 128t123 131t123 119t110 89.5q-38 -6 -73.5 -8.5t-67.5 -2.5q-34 0 -63 3t-55 8q22 -7 22 -32q0 -19 -10.5 -41t-17.5 -33q-9 -16 -28 -40t-42.5 -48t-49.5 -42q-33 -23 -61 -23q-25 0 -34.5 14.5t-9.5 33.5
q0 18 5 36t11 30q5 11 11.5 22.5t13.5 21.5q3 6 15 21.5t27 34t29 31.5t22 13q5 0 11 -2.5t5 -8.5q0 -5 -15 -24t-35.5 -45t-39.5 -54q-2 -4 -11.5 -20t-17.5 -35.5t-8 -35.5q0 -22 23 -22q10 0 21.5 6.5t18.5 12.5q28 22 55.5 56.5t45.5 72.5t18 67q0 17 -7.5 30t-25.5 20
q5 5 12 8.5t15 1.5q31 -9 64.5 -12t67.5 -3q19 0 37 0.5t36 1.5q42 2 93.5 11.5t86.5 19.5q11 -1 11 -10q0 -12 -14.5 -28.5t-28.5 -18.5q-43 -29 -95 -73.5t-109 -98t-113 -110t-107.5 -110t-93 -99t-68.5 -75.5q-4 -6 -19 -6zM420 -10q-25 0 -34.5 14.5t-9.5 33.5
q0 18 5 36t11 30q5 11 11.5 22.5t13.5 21.5q3 6 15 21.5t27 34t29 31.5t22 13q5 0 11.5 -2.5t5.5 -8.5q0 -5 -15 -24t-35.5 -45.5t-39.5 -53.5q-3 -4 -12 -20t-17.5 -35.5t-8.5 -35.5q0 -22 23 -22q10 0 21.5 6.5t18.5 12.5q28 21 55.5 56t45.5 73t18 67q0 17 -7.5 30
t-24.5 20q-6 2 -6 4q0 6 6 6q16 0 34.5 -6.5t32 -19.5t13.5 -32t-8.5 -38.5t-19.5 -37.5q-9 -16 -28 -39.5t-42.5 -47.5t-48.5 -42q-16 -10 -32 -16.5t-30 -6.5z" />
    <glyph glyph-name="ampersand" unicode="&#x26;" horiz-adv-x="608" 
d="M652 -111q-29 0 -59.5 20.5t-63.5 66.5q-13 19 -27.5 43t-28.5 49q-16 -16 -33 -30.5t-41 -29.5q-41 -26 -79 -37.5t-72 -11.5q-35 0 -63.5 12t-46.5 32q-27 30 -27 70q0 37 19.5 68t45.5 54q41 36 90 61.5t95 52.5l1 1q-11 35 -11 67q0 9 1.5 18.5t2.5 18.5
q8 36 31.5 52.5t47.5 16.5q23 0 39.5 -13t16.5 -36q0 -21 -16 -43t-37.5 -41t-40.5 -32q8 -19 22.5 -49.5t30.5 -62.5h134q14 0 28.5 0.5t21.5 6.5q2 2 4 1t0 -5l-18 -27q-3 -7 -12 -7h-7t-10 1q-12 2 -25.5 3.5t-27.5 2.5q-4 -18 -13 -39t-20 -38q18 -31 36 -59.5t33 -48.5
q30 -38 56 -54t48 -16q34 0 61.5 25.5t49.5 54.5q3 4 6 4q5 0 5 -6t-4 -10q-35 -49 -70 -77.5t-73 -28.5zM392 329q29 20 52.5 45.5t30.5 51.5q1 3 1 6v5q0 17 -11 25.5t-25 8.5q-16 0 -32.5 -12.5t-23.5 -41.5q-1 -6 -1.5 -12t-0.5 -12q0 -19 3.5 -36.5t6.5 -27.5zM287 8
q55 0 101 18q21 8 40.5 24t35.5 35q-9 17 -23 44t-30 60q-20 -1 -46 -7t-44.5 -20t-16.5 -40q0 -7 3.5 -17.5l4.5 -13.5l-8 -6q-7 13 -18.5 32t-12.5 28t0.5 22t13.5 23q13 11 36 14.5t48 3.5q8 0 16 -0.5t15 -0.5q-9 22 -18.5 45t-18.5 46l-9 -6q-39 -24 -81.5 -53
t-71.5 -65q-13 -16 -22.5 -39t-9.5 -46q0 -13 4.5 -26.5t14.5 -24.5q17 -16 42.5 -23t54.5 -7zM493 124q9 14 17 30.5t13 29.5q-16 2 -32 3t-33 2q11 -19 19.5 -36t15.5 -29z" />
    <glyph glyph-name="quotesingle" unicode="'" horiz-adv-x="106" 
d="M111 428q-9 0 -4 11q13 33 21.5 68.5t15.5 65.5q0 6 10.5 14t24 14.5t24 9t8.5 -2.5q-12 -36 -36 -81t-44 -82q-9 -17 -20 -17z" />
    <glyph glyph-name="parenleft" unicode="(" horiz-adv-x="268" 
d="M163 -54q-51 0 -82.5 35.5t-31.5 101.5q0 65 19 129.5t50 119.5q36 63 94.5 120t129.5 102t142 70q28 10 55.5 16.5t55.5 8.5q5 1 8.5 -7t-1.5 -9q-69 -12 -139 -45.5t-133 -84.5t-112 -115.5t-77.5 -137.5t-28.5 -151q0 -26 9 -57.5t30.5 -52.5t58.5 -18q5 1 9.5 2
t8.5 2h1q6 0 6 -4q0 -11 -17 -16q-30 -9 -55 -9z" />
    <glyph glyph-name="parenright" unicode=")" horiz-adv-x="507" 
d="M-35 -45q-4 -1 -7.5 7t0.5 9q69 11 139 44.5t133.5 84.5t112.5 115.5t77.5 138t28.5 151.5q0 27 -9 58t-30 52t-59 18q-5 -1 -9.5 -2t-9.5 -2h-1q-5 0 -5 4t4.5 9t12.5 7q29 9 54 9q52 0 83 -36.5t31 -104.5q0 -64 -18.5 -127.5t-50.5 -117.5q-35 -63 -94 -120.5
t-129.5 -102t-142.5 -69.5q-27 -10 -55 -16.5t-56 -8.5z" />
    <glyph glyph-name="asterisk" unicode="*" horiz-adv-x="507" 
d="M254 234h-62l70 165l-3 2l-173 -98l-16 51l184 66v2l-143 67l47 51l113 -99l4 2l31 166h62l-71 -166l3 -2l174 100l16 -51l-184 -68l-1 -2l144 -66l-48 -51l-113 98l-4 -2z" />
    <glyph glyph-name="plus" unicode="+" horiz-adv-x="326" 
d="M170 41q17 32 36.5 77t34.5 79q-35 0 -78.5 -0.5t-76.5 -3.5q-3 0 3.5 9.5t16.5 18.5t15 8q12 -2 35.5 -3t50 -1h45.5q12 30 25 64t17 50q2 5 16.5 11t27.5 9t12 0q-5 -11 -15.5 -33.5t-23 -49t-23.5 -51.5q29 0 61.5 0.5t59.5 1.5t39 1q3 0 -3.5 -9t-16 -18t-15.5 -9
q-10 1 -34 2t-52 2t-51 1l-1 -4q-8 -19 -19 -45t-19.5 -50t-11.5 -36q-1 -5 -15.5 -11.5t-28 -9.5t-11.5 0z" />
    <glyph glyph-name="comma" unicode="," horiz-adv-x="129" 
d="M36 -80q1 2 1.5 4t6.5 7q17 15 26.5 34t9.5 29q0 11 -6.5 20.5t-18.5 12.5l4 11q5 1 14 5.5t13 7.5q5 3 9 7.5t6 4.5q21 -3 21 -26q0 -4 -0.5 -7.5t-1.5 -8.5q-7 -37 -25 -59t-46 -42q-15 -10 -13 0z" />
    <glyph glyph-name="hyphen" unicode="-" horiz-adv-x="249" 
d="M220 144q-12 1 -25.5 2.5t-33.5 1.5q-23 0 -42.5 -0.5t-42.5 -2.5q-2 0 2 7t10.5 14t9.5 6q11 -2 28.5 -2.5t36.5 -1.5q26 0 46 1t33 2q2 0 -2 -7t-10 -13.5t-10 -6.5z" />
    <glyph glyph-name="period" unicode="." horiz-adv-x="149" 
d="M70 -6q-10 0 -20.5 7.5t-16.5 14.5q-1 2 8 8.5t19.5 12.5t11.5 5q8 -4 16 -8.5t17 -3.5h4q5 0 5 -3t-7 -10q-9 -7 -18.5 -15t-18.5 -8z" />
    <glyph glyph-name="slash" unicode="/" horiz-adv-x="377" 
d="M19 -32q-9 0 -15 1.5t-4 5.5q44 62 99 134.5t113 147.5t113.5 143.5t101.5 123.5t75 86q2 2 11 2.5t20 0.5q14 0 27 -0.5t11 -2.5q-22 -23 -63.5 -70.5t-93.5 -109.5t-107.5 -129t-107.5 -130.5t-93 -115t-63 -81.5q-2 -3 -9 -4.5t-15 -1.5z" />
    <glyph glyph-name="zero" unicode="0" horiz-adv-x="368" 
d="M153 -8q-49 0 -69 31t-20 77q0 45 15.5 95.5t40.5 95t53 70.5q17 15 36.5 30.5t35.5 29.5q14 11 36 16t38 5q45 0 64.5 -32.5t19.5 -79.5q0 -43 -13.5 -92t-37 -92.5t-52.5 -70.5q-16 -15 -33 -26.5t-34 -28.5q-16 -15 -40 -21.5t-40 -6.5zM194 26q34 0 65.5 31t56.5 89
q17 40 27.5 80t10.5 74q0 35 -12 61t-38 37q-15 6 -30 6q-37 0 -68.5 -34.5t-53.5 -87.5q-17 -39 -27 -78.5t-10 -74.5q0 -33 10.5 -58t34.5 -37q15 -8 34 -8z" />
    <glyph glyph-name="one" unicode="1" horiz-adv-x="243" 
d="M125 6l-24.5 -1.5t-92.5 -6.5l9 13q3 -1 13 -1q17 0 41.5 7.5t35.5 26.5q5 9 12.5 29.5t16 44.5t15.5 45.5t11 34.5l34 105q14 46 14 60q0 8 -2.5 10.5t-6.5 4.5q-5 3 -18 -5t-27 -19q-10 -7 -19 -15t-14 -10q3 11 4.5 15.5t3.5 11.5q14 9 33.5 20t43.5 26q12 8 35 22.5
t40 24.5q5 4 9 4q3 0 3 -4q0 -5 -3 -11q-19 -37 -35 -82t-36 -110l-15 -49q-8 -25 -17.5 -55.5t-16.5 -57t-9 -40.5q-2 -16 12 -23.5t31.5 -9t23.5 -1.5l-11 -12q-5 2 -22 3.5t-37 3t-35 1.5z" />
    <glyph glyph-name="two" unicode="2" horiz-adv-x="331" 
d="M21 -5q23 20 66 58.5t94 87.5q19 18 45 42.5t52 52.5t46.5 55.5t27.5 51.5q4 11 4 23q0 23 -17.5 38.5t-50.5 15.5q-16 0 -34 -4t-31 -12q-10 -7 -21.5 -22.5t-15.5 -29.5q-2 -7 -5.5 -22t-2.5 -18l-21 -11q4 12 9 34.5t9.5 43.5t4.5 27q0 8 6.5 13t11.5 7q10 4 33.5 7.5
t42.5 4.5l22 1q47 2 73 -10q20 -9 28.5 -24.5t8.5 -35.5q0 -19 -6 -37q-6 -20 -18.5 -38t-27.5 -35q-29 -31 -73.5 -67.5t-90 -71.5t-79.5 -61q-18 -14 -18 -19q0 -2 3.5 -2.5t7.5 -1.5q15 -1 33 -2t37 -1q31 0 59.5 3.5t42.5 11.5q10 6 22.5 18t23.5 25.5t14 20.5l9 -3
q-1 -2 -9 -13.5t-16.5 -26.5t-14.5 -27q-9 -19 -21 -30.5t-34 -11.5q-16 0 -42.5 1.5t-49.5 1.5h-17t-14 -1l-26 -1.5t-80 -5.5z" />
    <glyph glyph-name="three" unicode="3" horiz-adv-x="314" 
d="M135 -9q-23 0 -50.5 3.5t-41.5 11.5q-4 2 -8 7.5t0 12.5q3 6 8 21t10 32t8 28l22 9q-2 -3 -6.5 -17t-6.5 -22q-1 -3 -1 -6v-6q0 -28 13 -39q8 -8 23 -12t31 -4q43 0 73.5 18.5t50 46.5t28.5 58q6 20 6 34q0 30 -20.5 43.5t-50.5 17t-61 3.5q5 6 9 11l4 5q7 2 10 2t8 1
q22 5 51.5 14.5t55 28t35.5 50.5q4 11 4 23q0 23 -17.5 38.5t-50.5 15.5q-16 0 -34 -4t-30 -12q-11 -7 -22.5 -22.5t-15.5 -29.5q-2 -7 -5.5 -22t-2.5 -18l-21 -11q4 12 9 34.5t9.5 43.5t4.5 27q0 8 6.5 13t11.5 7q10 4 33.5 7.5t42.5 4.5l22 1q47 2 73 -10q19 -9 27 -23.5
t8 -30.5q0 -7 -1 -13t-3 -12q-10 -33 -40.5 -58.5t-75.5 -40.5q-14 -4 -14 -7q0 -2 6 -3l12 -2q23 -2 41.5 -11t26.5 -29q4 -9 4 -23q0 -19 -7.5 -42t-17.5 -42.5t-19 -30.5q-25 -31 -64 -50.5t-100 -19.5z" />
    <glyph glyph-name="four" unicode="4" horiz-adv-x="403" 
d="M237 6l-24 -1.5t-92 -6.5l9 13q3 -1 12 -1q17 0 41.5 7.5t35.5 26.5q6 11 15 35t18 50h-57l-40 -1.5t-94 -4.5h-7q-8 0 -8 2q0 3 11 10q17 11 41 37t45 48l117 123q29 31 45.5 52t27.5 25q17 5 38.5 16t30.5 11q8 0 3 -9q-19 -37 -35 -82t-37 -110l-15 -49
q-5 -16 -11 -33q17 2 30.5 4.5t20.5 6.5q11 6 25 18t25.5 25t14.5 20l10 -3q-1 -2 -9.5 -13.5t-17.5 -26t-15 -26.5q-10 -19 -22.5 -30.5t-34.5 -11.5q-8 0 -17.5 0.5t-19.5 0.5q-7 -26 -13.5 -49t-8.5 -35q-2 -16 12 -23.5t31.5 -9t24.5 -1.5l-12 -12q-5 2 -22 3.5t-37 3
t-35 1.5zM221 160h21t20 1q4 11 7.5 20.5t4.5 16.5l34 105q8 22 12.5 40.5t4.5 28.5q0 8 -3 11q-8 -5 -26.5 -23.5t-42.5 -43.5t-48.5 -51.5t-45 -49t-31.5 -34.5q-7 -7 -7 -12q0 -4 12 -6q17 -1 40 -2t48 -1z" />
    <glyph glyph-name="five" unicode="5" horiz-adv-x="331" 
d="M135 -9q-23 0 -50 3.5t-42 11.5q-4 2 -8 7.5t0 12.5q3 6 8 21t10 32t8 28l22 9q-2 -3 -6.5 -17t-6.5 -22q-1 -3 -1 -6v-6q0 -28 13 -39q8 -8 23 -12t31 -4q39 0 69.5 17.5t51.5 45t30 57.5q8 24 8 45q0 25 -13 41q-10 12 -26 18t-36 6q-22 0 -47 -3.5t-47 -11.5
q-3 -1 -5 -1.5t-4 -0.5t-2 1q0 2 3 6.5t7 12.5q11 22 21 46t18.5 44t11.5 28q3 7 8 20.5t10.5 26.5t6.5 17q4 10 12 10h206q8 0 3.5 -11t-12.5 -25t-13 -24l-4 -9.5t-9 -22t-10 -21.5l-14 3q9 14 16 29.5l7 15.5q5 8 5 14t-7 10.5t-26 4.5h-32.5t-47.5 -0.5t-35 -1.5
q-19 -2 -26 -14q-9 -17 -22.5 -45t-26 -54t-17.5 -37q17 9 45 14t46 5q111 0 111 -77q0 -22 -9 -51q-22 -73 -78 -110t-128 -37z" />
    <glyph glyph-name="six" unicode="6" horiz-adv-x="336" 
d="M159 -4q-55 0 -76 29t-21 71q0 28 7 58.5t17 58.5q21 57 56.5 110.5t86 88t115.5 34.5q18 0 34.5 -2.5t29.5 -9.5q4 -1 7.5 -5.5t-0.5 -10.5q-4 -8 -12 -32.5t-12 -39.5l-18 -8q2 3 6 15t6 19q1 3 1 6v6q0 22 -10 32q-7 7 -17.5 9.5t-22.5 2.5q-35 0 -68.5 -21
t-59.5 -52.5t-41 -62.5q-8 -16 -15.5 -34.5t-11.5 -34.5q16 12 32.5 20t28.5 16q11 7 31.5 10t35.5 3q49 0 70 -26.5t21 -62.5q0 -37 -19.5 -75.5t-51.5 -60.5q-14 -9 -28 -16t-30 -18q-13 -9 -35 -13t-36 -4zM194 22q23 0 45 11q37 20 52.5 56t15.5 69q0 15 -3 28
q-5 26 -23.5 42t-45.5 16q-19 0 -40 -9q-43 -19 -63 -63q-9 -19 -14.5 -37.5t-5.5 -36.5q0 -25 12 -44.5t40 -27.5q13 -4 30 -4z" />
    <glyph glyph-name="seven" unicode="7" horiz-adv-x="310" 
d="M109 0q-6 2 -12 2h-11q-14 0 -24.5 -1.5t-11.5 1.5q1 6 23 33t56.5 67.5t73 85.5t73 86t57 70.5t23.5 38.5v2q0 10 -17 12q-10 1 -34.5 1.5t-48.5 0.5h-33q-28 0 -39 -7t-17 -18l-9 -15.5t-13 -29.5l-18 -3q5 9 11 20.5t11 20l5 8.5q6 10 11.5 24t12.5 25t15 11h26
t56 -0.5t67 -1t59 -0.5q8 0 18.5 2.5t17 3t-0.5 -7.5q-14 -16 -43 -50t-65.5 -77.5t-74 -90.5t-69.5 -90t-52.5 -75.5t-22.5 -47.5z" />
    <glyph glyph-name="eight" unicode="8" horiz-adv-x="351" 
d="M130 -9q-34 0 -62 15.5t-28 48.5q0 13 4 25q10 32 32.5 57t50.5 44.5t55 34.5q-22 15 -35 32t-13 42q0 8 2 17.5t5 19.5q11 35 37 62.5t59 43.5t65 16q35 0 57 -14.5t22 -46.5q0 -7 -1 -14.5t-4 -16.5q-8 -24 -28 -46t-44.5 -40t-47.5 -32q24 -18 41.5 -37.5t17.5 -49.5
q0 -15 -6 -35q-12 -39 -40.5 -67t-65 -43.5t-73.5 -15.5zM242 249q19 12 40.5 30.5t39.5 40t24 41.5q4 11 4 23q0 23 -15 36t-39 13q-35 0 -63 -22.5t-39 -58.5q-4 -12 -4 -26q0 -27 16.5 -45t35.5 -32zM133 10q38 0 70 22t45 61q3 9 4 17t1 15q0 29 -16.5 47t-39.5 34
q-35 -22 -66.5 -51t-43.5 -67q-3 -8 -4 -16t-1 -15q0 -21 12.5 -34t38.5 -13z" />
    <glyph glyph-name="nine" unicode="9" horiz-adv-x="336" 
d="M115 -4q-18 0 -34 2.5t-30 9.5q-3 2 -6.5 6t0.5 11q4 8 12 32t12 39l18 8q-2 -2 -6 -14t-6 -20q-1 -3 -1 -6v-6q0 -21 10 -31q8 -7 18 -9.5t22 -2.5q36 0 68.5 21t59 52.5t41.5 62.5q8 17 15.5 34.5t11.5 33.5q-16 -11 -32.5 -19t-28.5 -16q-11 -7 -32 -10t-36 -3
q-49 0 -70 26t-21 62q0 37 20 75.5t52 60.5q14 10 28 17t29 17q14 9 35.5 13t36.5 4q55 0 76 -28.5t21 -70.5q0 -27 -7 -57.5t-18 -59.5q-15 -42 -39 -83.5t-56 -75.5t-73 -54.5t-90 -20.5zM227 200q32 0 59 20t42 50q9 19 14.5 38t5.5 36q0 25 -12 44.5t-40 27.5
q-17 5 -31 5q-29 0 -55 -18t-43 -53q-9 -19 -14.5 -38t-5.5 -36q0 -25 13 -45t43 -28q12 -3 24 -3z" />
    <glyph glyph-name="colon" unicode=":" horiz-adv-x="154" 
d="M167 246q-10 0 -20 7t-16 14q-1 2 8 8.5t19 13t11 5.5q8 -4 16 -8.5t17 -3.5h4q5 0 5 -3t-7 -10q-9 -7 -18.5 -15t-18.5 -8zM95 -5q-11 1 -20.5 8t-15.5 14q-1 2 7.5 8.5t19 13t11.5 5.5q8 -4 16 -8.5t17 -3.5h3q6 0 6 -3q0 -4 -7 -10q-9 -8 -19 -16t-18 -8z" />
    <glyph glyph-name="semicolon" unicode=";" horiz-adv-x="154" 
d="M181 246q-11 0 -21 7t-16 14q-1 2 8 8.5t19 13t12 5.5q8 -4 16 -8.5t17 -3.5h4q5 0 5 -3t-7 -10q-9 -7 -19 -15t-18 -8zM51 -108q-5 -4 -9.5 -6l-4.5 -2l2 8q1 2 1.5 4t6.5 7q17 14 29.5 32.5t16.5 40.5q2 12 -5 22t-20 13l4 11q5 1 14 5.5t13 7.5t8 7.5t7 4.5
q11 -1 16 -8.5t5 -18.5q0 -4 -0.5 -7.5t-1.5 -7.5q-8 -37 -30.5 -65t-51.5 -48z" />
    <glyph glyph-name="less" unicode="&#x3c;" horiz-adv-x="293" 
d="M237 52q1 10 -3.5 17t-9.5 13q-25 35 -63 67.5t-73 50.5l5 17q61 33 119 71.5t114 80.5q0 -12 -6 -23q-9 -11 -31 -28.5t-48.5 -36t-50 -34t-35.5 -22.5q-6 -4 -2 -8q19 -13 41.5 -30.5t40.5 -36.5l14 -14t18.5 -22t8.5 -22q0 -6 -4 -10q-1 -2 -14 -13.5t-15 -16.5h-6z
" />
    <glyph glyph-name="equal" unicode="=" horiz-adv-x="344" 
d="M347 245q-19 2 -52.5 3.5t-63.5 1.5q-36 0 -73 -0.5t-72 -3.5q-3 0 3.5 9t16.5 18.5t15 8.5q17 -3 50 -3.5t62 -1.5q41 0 84 1.5t65 2.5q3 0 -3.5 -9t-16 -18t-15.5 -9zM322 124q-19 2 -52.5 3.5t-63.5 1.5q-36 0 -73 -0.5t-72 -3.5q-3 0 3.5 9.5t16.5 18.5t15 8
q17 -2 50 -3t62 -1q41 0 84 1t65 2q3 0 -3.5 -9t-16 -18t-15.5 -9z" />
    <glyph glyph-name="greater" unicode="&#x3e;" horiz-adv-x="293" 
d="M80 52q0 5 -7.5 16.5t-9.5 13.5q-4 9 10 23t32 27t25 18q26 19 56 36.5t54 30.5q6 4 1 8q-9 7 -25.5 22.5t-35.5 34t-33.5 36t-18.5 28.5v4q0 5 1.5 10t2.5 9q38 -42 80 -80.5t88 -71.5l-2 -17q-28 -12 -61.5 -31t-66 -41.5t-58.5 -45.5q-7 -6 -15 -13t-11 -17h-6z" />
    <glyph glyph-name="question" unicode="?" horiz-adv-x="434" 
d="M180 115q-25 27 -25 65q0 26 17.5 51t37.5 41l166 132q20 17 30 37t10 39t-9.5 35t-28.5 24q-15 7 -39 7q-21 0 -42.5 -6t-37.5 -17q-9 -6 -20.5 -22.5t-21 -35.5t-13.5 -36q0 -9 -10.5 -14t-9.5 5q4 15 8 35t7 39t3 28q0 11 8 18t14 10q12 6 41 11.5t52 6.5l28 2
q8 1 14.5 1h13.5q51 0 79 -19.5t28 -61.5v-11.5t-2 -13.5q-7 -40 -30.5 -66t-55.5 -43.5t-66.5 -33.5t-65 -36t-50.5 -50q-13 -21 -21 -40.5t-8 -35.5q0 -19 10 -30zM138 -6q-11 0 -21 7.5t-16 14.5q-1 2 7.5 8.5t19 12.5t11.5 5q8 -4 16 -8.5t17 -3.5h4q5 0 5 -3t-7 -10
q-9 -7 -18.5 -15t-17.5 -8z" />
    <glyph glyph-name="at" unicode="@" horiz-adv-x="707" 
d="M313 -113q-46 0 -90.5 10.5t-80.5 34t-57 61.5t-21 93q1 80 34 143.5t88.5 108.5t125.5 68.5t144 23.5q52 0 102 -10.5t89 -33t61 -58t19 -85.5q-5 -79 -51.5 -128.5t-119.5 -72.5t-158 -23q-24 0 -24 20q0 13 7 31t16 36t16 29q-17 -19 -35.5 -36.5t-38.5 -33.5
q-19 -16 -41.5 -30t-48.5 -14q-10 0 -14 6t-4 15v8q5 39 25.5 80.5t49.5 78.5t59 61q17 12 36 19t39 7l115 -1q5 0 5 -4q0 -8 -9 -8q-11 0 -21 -12t-15 -20q-7 -12 -21.5 -37t-30 -55t-26.5 -56.5t-11 -41.5q0 -9 9.5 -14t24.5 -5q26 0 61 12.5t69.5 38.5t57 65t22.5 93
q0 57 -29.5 91t-76.5 49.5t-99 15.5q-65 0 -126.5 -24t-111.5 -67t-79.5 -101.5t-30.5 -128.5q0 -54 26 -95.5t70.5 -65t99.5 -23.5q77 0 145 25t120 81q11 11 19 11q9 0 9 -13q0 -6 -4 -14t-12 -16q-61 -55 -126.5 -72t-150.5 -17zM290 54q12 0 33.5 17.5t46.5 44.5
t47 56.5t36.5 54t14.5 37.5q0 11 -7 15t-17 4q-16 0 -34 -12t-29 -23q-12 -11 -28.5 -34.5t-33 -51.5t-27.5 -54t-11 -42q0 -12 9 -12z" />
    <glyph glyph-name="A" unicode="A" horiz-adv-x="768" 
d="M87 -25q-31 0 -50.5 18t-15.5 54q1 13 6.5 27.5t12.5 28.5q6 14 12 14q5 0 1 -8q-13 -27 -13 -48q0 -22 15.5 -33t40.5 -11q49 0 108 31.5t122 81t121 103.5q-39 2 -73 4t-60 2q-22 0 -53 -4t-48 -21q-7 -7 -12.5 -20.5t-5.5 -27.5q0 -4 0.5 -7.5t1.5 -7.5
q-4 2 -14.5 3.5t-13.5 12.5q-1 3 -1 10q0 16 12 26.5t29 18.5t31 14q33 14 68 23t71 9q41 0 102 -3q47 46 87 87t65 68q35 37 74.5 63.5t80.5 37.5h-55q-35 0 -76 -3t-77 -13t-60 -30q-15 -13 -22.5 -29.5t-7.5 -30.5q0 -19 11 -26q1 0 1 -0.5v-0.5q0 -3 -7 -6.5t-10 -1.5
q-10 7 -17.5 28.5t-5.5 34.5q5 31 27.5 50.5t56 30.5t71 15t72 5t58.5 1h109q2 0 1 -1q25 11 52.5 22t47.5 11q5 0 10.5 -3t5.5 -6q0 -5 -20 -5q-10 0 -20.5 -3.5t-27.5 -21.5q-14 -14 -35 -45t-46 -72.5t-50 -88t-48 -91.5t-40 -83q-2 -6 -11 -27.5t-17 -47t-8 -45.5
q0 -27 19 -27q9 0 18 4q13 5 27 15t27 23q26 25 44 48.5t22 28.5q3 5 7 5t4 -5q0 -3 -3 -8q-7 -10 -26 -34.5t-44.5 -49.5t-54.5 -38q-9 -4 -19 -6.5t-20 -2.5q-20 0 -36.5 14t-16.5 46q0 29 11.5 62.5t21.5 54.5q20 43 47.5 96t57 106t54.5 96t41 64q-16 0 -43 -12.5
t-57.5 -33t-56.5 -47.5q-31 -32 -71.5 -78t-87.5 -96q23 -1 46 -1.5t46 -0.5q16 0 35.5 3.5t36.5 11.5l-5.5 -10.5t-18 -21t-33.5 -12.5q-19 -1 -38 -1.5t-38 -0.5h-31.5t-30.5 1q-46 -48 -96 -93.5t-101 -82.5t-101.5 -58.5t-98.5 -21.5z" />
    <glyph glyph-name="B" unicode="B" horiz-adv-x="562" 
d="M11 -19q-7 0 -11 3.5t0 5.5q22 4 38 16.5t26 31.5q21 35 41 70.5t39 71.5l96 177q23 41 40.5 79t27.5 55q7 13 24.5 23.5t34.5 16.5q-6 0 -12 0.5t-13 0.5q-31 0 -67.5 -3.5t-71 -10.5t-60.5 -19t-35 -29q-4 -9 -7 -18t-3 -18q0 -23 16 -33q1 0 1 -2t-3.5 -4t-6.5 -1
q-9 5 -22 24.5t-16 32.5q-3 12 -3 22q0 26 17 40.5t43 21t53.5 8t48.5 1.5q32 0 76 0.5t81 0.5q9 0 20 0.5t23 0.5q27 0 56 -3t53 -13t37 -31q13 -22 13 -48q0 -25 -10 -50t-24 -43q-9 -11 -21 -22t-27 -21t-32.5 -18.5t-41.5 -13.5q-1 0 -1.5 -3t1.5 -3q5 -1 17.5 -2.5
t22.5 -3.5q35 -7 58.5 -29.5t23.5 -60.5q0 -43 -22.5 -79t-57.5 -61.5t-73 -39.5q-48 -18 -110 -18q-37 0 -77 7t-73 24q-7 4 -14 6.5t-15 2.5q-14 0 -30 -8q-10 -4 -26 -15t-36 -18q-2 -1 -6 -1zM256 -3q26 0 52 5.5t47 13.5q37 14 68 39.5t50.5 61t19.5 79.5
q0 29 -15 44.5t-38 21.5t-48 6q-19 0 -36 -2t-31 -5q-28 -5 -50 -11q-4 2 1 7.5t13.5 12.5t13.5 11q2 2 8.5 6.5t10.5 4.5q49 0 87.5 6t66.5 29.5t46 73.5q9 26 9 51q0 29 -14 50.5t-45 25.5q-4 1 -9 1h-10q-19 0 -41.5 -5t-33.5 -19q-25 -33 -48 -74.5t-44 -84t-40 -79.5
q-23 -45 -47 -91t-47 -93q-6 -12 -6 -23q0 -20 25 -39q17 -13 39.5 -18.5t45.5 -5.5z" />
    <glyph glyph-name="C" unicode="C" horiz-adv-x="527" 
d="M248 -29q-53 0 -101.5 15.5t-78.5 51.5t-30 97q0 65 25 127t67 115.5t94 92.5q46 35 106.5 57t120.5 22q25 0 47 -3.5t45 -14.5q20 -9 32 -22.5t12 -30.5v-5t-1 -5q-4 -16 -18.5 -36.5t-22.5 -42.5q-1 -4 -11 -6.5t-8 1.5q8 13 12.5 32t4.5 38q0 14 -2.5 26.5t-8.5 21.5
q-10 18 -31 25t-45 7q-23 0 -46 -5t-40 -11q-58 -21 -111 -66q-47 -41 -83.5 -95t-57.5 -111t-21 -109q0 -53 23 -84t60 -44t80 -13q38 0 75.5 8t68.5 20q53 20 95.5 49t79.5 75q5 5 7 5q3 0 3 -4q0 -8 -8 -19q-34 -46 -77 -77t-92 -51q-33 -13 -76.5 -22t-87.5 -9z" />
    <glyph glyph-name="D" unicode="D" horiz-adv-x="626" 
d="M10 -19q-2 0 -7 1.5t-5 4.5q0 1 1 2l1 1q7 2 6.5 2t-0.5 -0.5t7 1.5q17 6 29.5 17.5t21.5 27.5q47 78 90 158.5t86 160.5q12 21 23 43l22 44q5 12 10.5 24t12.5 23q8 14 25.5 24.5t33.5 15.5h-24q-20 0 -54.5 -2.5t-72.5 -8.5t-67.5 -18t-40.5 -32q-10 -18 -10 -35
q0 -20 9 -27t9 -9t-3 -4t-5 -2q-6 0 -15 12t-16.5 26.5t-9.5 19.5q-3 11 -3 22q0 27 18.5 41.5t45.5 20.5t54.5 7.5t45.5 1.5q50 0 100 2.5t99 2.5q47 0 92.5 -6.5t82.5 -25.5t59.5 -54t22.5 -92q0 -52 -19.5 -106.5t-48.5 -97.5q-122 -183 -342 -183q-34 0 -69.5 7
t-66.5 23q-7 4 -14.5 6.5t-15.5 2.5q-17 0 -34 -10.5t-33 -21t-31 -10.5zM262 -2q75 0 140 29t114 81.5t77 120.5q13 32 21.5 67t8.5 69q0 78 -47.5 120.5t-124.5 42.5q-19 0 -39.5 -4t-33.5 -19q-13 -16 -24.5 -35t-22.5 -37q-23 -40 -43.5 -82.5t-41.5 -83.5
q-33 -63 -65 -127q-7 -14 -14.5 -28.5t-14.5 -28.5q-2 -5 -4 -10.5t-2 -12.5q0 -13 8 -22t17 -17q19 -14 44 -18.5t47 -4.5z" />
    <glyph glyph-name="E" unicode="E" horiz-adv-x="478" 
d="M234 -12q-32 0 -65 1.5t-65 5.5q-71 6 -71 46q0 20 16 48q38 69 78 137.5t79 137.5q12 22 31 55t38 63q9 14 26 28.5t35 18.5q-21 -1 -53.5 -3t-66 -7.5t-60 -17t-37.5 -31.5q-4 -9 -7 -18t-3 -18q0 -23 16 -33q1 0 1 -2t-3.5 -4t-6.5 -1q-9 5 -22 24.5t-16 32.5
q-3 12 -3 22q0 26 17 40.5t43 21t53 8t48 1.5q53 0 106 1.5t105 1.5h45.5t44.5 -2q25 -1 34.5 -10t9.5 -22q0 -16 -10.5 -36.5t-19.5 -37.5q-4 -8 -13 -11.5t-7 5.5q5 20 5 40q0 18 -6.5 32.5t-24.5 20.5q-17 5 -53 5q-13 0 -26.5 -0.5t-27.5 -1.5q-40 -3 -54 -21
q-33 -46 -63.5 -99.5t-58.5 -101.5q-1 -2 -1 -5q0 -6 9 -6q35 0 75.5 -1t71.5 0q7 1 21.5 2t30 4t23.5 7q5 3 6 3q6 0 0.5 -11.5t-18 -23t-28.5 -11.5q-49 0 -82.5 2t-74.5 2h-21t-24 -1q-10 -1 -14 -8q-10 -18 -17.5 -33t-18.5 -35q-8 -15 -19.5 -38.5t-20.5 -48t-9 -42.5
q0 -31 29 -42.5t71 -12.5q58 0 114.5 11.5t106 39t86.5 74.5q2 2 3 2q3 0 4 -5.5t-1 -8.5q-31 -38 -60 -73.5t-58 -44.5q-21 -6 -68 -10.5t-104 -4.5z" />
    <glyph glyph-name="F" unicode="F" horiz-adv-x="582" 
d="M141 -38q-31 0 -59 17.5t-42 53.5q-5 13 -6.5 28t-1.5 29v13q0 7 1.5 13t7.5 6q2 0 2 -2q0 -6 -0.5 -12t-0.5 -12q0 -47 23.5 -71.5t58.5 -24.5t68 20.5t61 51.5q16 17 36.5 51.5t43 78t45.5 90t44 90t38 76.5q16 31 43 49t46 25q-7 0 -29.5 -1t-47.5 -2t-40 -2
q-38 -2 -77 -9t-69 -19t-43 -31q-9 -13 -9 -30q0 -34 30 -49l2 -2q0 -3 -5 -5.5t-10 -1.5q-8 5 -19.5 16.5t-21 24.5t-12.5 22q-5 15 -5 24q0 24 18 39.5t47 24t62 12t64 4.5t53 1q51 0 91.5 0.5t74.5 0.5q35 0 67.5 -1t68.5 -3q26 -1 35.5 -10t9.5 -22q0 -17 -11 -37
t-20 -37q-4 -8 -13 -11.5t-7 5.5t4 19.5t2 20.5q0 18 -7 32.5t-24 20.5q-10 4 -24 5.5t-30 1.5q-30 0 -60 -6t-47 -19q-21 -16 -42.5 -52t-40.5 -77t-34 -72q-1 -2 -1 -6q0 -5 9 -5h39.5t53.5 -0.5t48 -0.5q22 0 35 -2.5t13 -13.5q0 -4 -5 -16q-7 -16 -15.5 -27.5
t-13.5 -23.5q-1 -4 -9 -7t-6 1q4 9 8.5 22.5t4.5 23.5q0 16 -14 16h-156q-9 0 -14 -8q-29 -58 -62.5 -124t-77.5 -113q-25 -27 -58 -44t-68 -17z" />
    <glyph glyph-name="G" unicode="G" horiz-adv-x="576" 
d="M178 -348q-38 0 -78.5 16.5t-57.5 52.5q-7 13 -8.5 27.5t-1.5 28.5v11q0 8 2 14.5t10 6.5q2 0 2 -2q0 -6 -1 -12t-1 -13q0 -46 29.5 -70t73.5 -24q63 0 116 31t96 85q42 52 68.5 101.5t46.5 100.5t41 105q-26 -39 -72 -71.5t-99.5 -52t-103.5 -19.5q-53 0 -99.5 18.5
t-74.5 55.5t-28 93q0 65 25 127t67 115.5t94 92.5q46 35 106.5 57t120.5 22q25 0 47 -3.5t45 -14.5q20 -9 32 -22.5t12 -30.5v-5t-1 -5q-4 -16 -18.5 -36.5t-22.5 -42.5q-1 -4 -11 -6.5t-8 1.5q8 13 12.5 32t4.5 38q0 14 -2.5 26.5t-8.5 21.5q-10 18 -31 25t-45 7
q-23 0 -46 -5t-40 -11q-58 -21 -111 -66q-47 -41 -83.5 -95t-57.5 -111t-21 -109q0 -53 20.5 -86t54.5 -48.5t73 -15.5q81 0 142.5 37.5t104.5 98.5t66 131h-103q-12 0 -33 -1.5t-43 -7t-37 -17.5t-15 -33q0 -7 2 -14.5t3 -11.5l-9 -6q-7 13 -16.5 27.5t-10.5 23.5
q-1 8 1 21t13 23q12 11 34.5 14.5t46.5 3.5q22 0 42 -1.5t32 -1.5h190l-11 -12q-14 0 -31 -4.5t-28 -18.5q-22 -28 -33.5 -63t-23.5 -74q-20 -71 -39 -139.5t-50.5 -130t-91.5 -113.5q-32 -27 -80 -46.5t-89 -19.5z" />
    <glyph glyph-name="H" unicode="H" horiz-adv-x="770" 
d="M114 -20q-31 0 -59 18t-42 53q-5 13 -6.5 28t-1.5 29v13q0 7 1.5 13t7.5 6q2 0 2 -2q0 -6 -0.5 -12t-0.5 -12q0 -47 23.5 -71t58.5 -24t68 20t61 51q23 25 45.5 65t46.5 86q-32 -1 -67 -2.5t-64 -6.5q-9 -1 -5 5t15 15t23.5 16t20.5 8q17 -1 42.5 -1.5t50.5 -1.5
q22 40 42.5 81.5t38.5 77.5q10 20 26.5 40.5t37 36.5t42.5 20q-53 -2 -109.5 -3t-107.5 -15q-23 -6 -41 -16t-26 -25t-8 -33q0 -25 14 -36q1 -1 1 -2q0 -2 -3.5 -4t-6.5 -1q-9 5 -22 24.5t-16 32.5q-3 12 -3 22q0 26 17 40.5t43 21t53 8t48 1.5h111q38 0 66 0.5t45 3.5
q2 0 3 0.5t2 0.5q6 0 6 -4t-3.5 -7.5t-5.5 -3.5q-31 -3 -58 -27t-49 -62q-6 -11 -22 -41t-35 -66t-35 -67q19 -1 31.5 -1.5t14.5 -0.5h147q9 0 33.5 3t37.5 9q27 52 55 103t52.5 91.5t38.5 58.5q17 7 38.5 17t43 18t38.5 8q5 0 10.5 -3t5.5 -6q0 -5 -20 -5q-10 0 -21 -3.5
t-28 -21.5q-14 -14 -36.5 -47.5t-48.5 -78t-52.5 -93.5t-49.5 -95.5t-39 -84t-21 -57.5q-1 -7 -2.5 -15.5t-1.5 -16.5q0 -16 8 -28t30 -12q16 0 32.5 6t29.5 13q36 20 65 54.5t47 58.5q3 4 4 4q3 0 3 -7q0 -6 -3 -11q-19 -27 -50 -62.5t-72 -58.5q-32 -17 -73 -17
q-31 0 -53.5 22.5t-22.5 54.5q0 16 6 32q9 23 29.5 66t46.5 95q-10 -9 -23 -16t-25 -6q-31 3 -70.5 3.5t-101.5 0.5h-48q-28 -57 -58 -111.5t-62 -89.5q-25 -27 -60 -44t-70 -17z" />
    <glyph glyph-name="I" unicode="I" horiz-adv-x="365" 
d="M120 -10q-31 0 -59 17.5t-42 53.5q-5 13 -7 27.5t-2 28.5t5 14q6 0 6 -8q0 -47 23.5 -71t58.5 -24t68 20t61 51q45 50 77 101.5t58.5 106t53.5 113.5q14 30 34.5 56.5t45.5 42.5h-30q-15 0 -41.5 -2t-53.5 -9t-45 -23t-16 -43q1 -8 6 -21.5t6 -16.5l-10 -8
q-6 11 -15 25.5t-16.5 28.5t-8.5 21q-1 10 1.5 26t15.5 28q15 13 41.5 17t54.5 4q27 0 52 -2t41 -2l160 1l-13 -15q-10 0 -28.5 -1.5t-38.5 -5.5q-24 -4 -55 -26.5t-53 -59.5l-9 -15q-15 -34 -34 -81t-42.5 -99t-51.5 -100.5t-62 -84.5q-25 -27 -63 -46t-73 -19z" />
    <glyph glyph-name="J" unicode="J" horiz-adv-x="203" 
d="M-113 -167q-31 0 -59 18t-42 54q-5 13 -6.5 27.5t-1.5 28.5t5 14t5 -8q0 -47 23.5 -71t59.5 -24q35 0 67.5 20t60.5 51q47 51 85.5 116.5t69.5 135.5q8 17 23 54.5t33 82t35 80.5q15 34 25.5 54t28.5 34t54 28q-16 -1 -30 -2.5t-22 -1.5q-38 -1 -76 -5t-68 -14.5
t-43 -29.5q-9 -13 -9 -30t9 -33t23 -23q2 -2 2 -3q0 -2 -4.5 -4.5t-9.5 -1.5q-8 5 -20 16.5t-21.5 24.5t-12.5 22q-4 12 -4 24q0 24 17.5 39t45.5 23t60.5 11.5t63 4t52.5 0.5h108q2 0 2 -1q0 -3 -6.5 -8.5t-8.5 -5.5q-28 -1 -49.5 -21t-37 -45.5t-25.5 -46.5
q-6 -12 -18.5 -38.5t-27 -60t-29 -66.5t-25.5 -57q-26 -60 -48.5 -111.5t-49.5 -96.5t-67 -88q-25 -27 -63.5 -46.5t-73.5 -19.5z" />
    <glyph glyph-name="K" unicode="K" horiz-adv-x="560" 
d="M6 -21q-4 0 -6.5 2t-0.5 3q23 18 38.5 36t31.5 46l14 24q20 34 45 78t50.5 89t47 83t34.5 61.5l13 23.5q27 47 59.5 71.5t57.5 31.5q-73 -1 -130 -11t-77 -47q-4 -7 -5.5 -15.5t-1.5 -16.5q0 -26 14 -37q1 -1 1 -2q0 -2 -3.5 -4t-6.5 -1q-9 5 -22 24.5t-16 32.5
q-3 12 -3 22q0 27 19 42t46.5 21t56.5 7t48 1h40q20 0 43.5 0.5t39.5 3.5h4q6 0 9 -4t3 -8q0 -8 -7 -8q-4 0 -6.5 0.5t-6.5 0.5q-46 0 -92 -80l-10.5 -17.5t-26 -44.5t-32.5 -57t-30 -54q-27 -50 -57.5 -108.5t-62.5 -121.5q-7 -12 -12 -27.5t-15 -15.5q-4 0 -10 1t-13 1
q-17 0 -30.5 -6t-27.5 -19q-1 -1 -4 -1zM442 -11q-25 0 -51 16.5t-53 51.5q-32 43 -54 83.5t-35.5 70.5t-20.5 43q56 52 115.5 93t118.5 78q40 24 86 53.5t93 49.5q33 14 64 14q14 0 28 -2.5t27 -7.5q10 -3 23 -12.5t11 -21.5q0 -4 -4 -4q-5 0 -9 6t-12 12t-25 6
q-22 0 -48.5 -9t-46.5 -17q-40 -17 -84 -37t-83 -42q-35 -19 -74 -44t-75.5 -50.5t-65.5 -46.5q6 -15 20 -45t37 -67.5t54 -75.5q23 -28 45.5 -40.5t42.5 -12.5q27 0 50.5 15.5t45 39.5t40.5 49q5 6 7 6q4 0 4 -5q0 -6 -5 -12q-44 -61 -84.5 -98t-81.5 -37z" />
    <glyph glyph-name="L" unicode="L" horiz-adv-x="547" 
d="M8 -7q-1 -1 -2 -1q-3 0 -3 9q0 6 3.5 12.5t13.5 7.5q28 2 53 19t44 40.5t27 44.5l92 230q19 47 43.5 91t63 72t97.5 28q23 0 46.5 -5.5t39.5 -17.5t16 -34v-6t-1 -6q-3 -16 -17.5 -32t-22.5 -40q-1 -7 -9 -7q-7 0 -3 9q8 12 12.5 28.5t4.5 33.5q0 26 -12 46t-41 20
q-26 0 -53 -15t-47 -52l-185 -341q-26 -48 -47.5 -68.5t-35.5 -25.5h241q48 0 89 3t50 15q10 14 10 30q0 25 -27 37q-3 2 -3 4t2.5 4t6.5 0q9 -4 21.5 -17.5t23.5 -29t14 -24.5t3 -18q0 -41 -71 -41q-56 0 -120 4t-126.5 9t-117.5 7q-21 2 -41.5 -5.5t-31.5 -17.5z" />
    <glyph glyph-name="M" unicode="M" horiz-adv-x="830" 
d="M116 -10q-31 0 -59 17.5t-42 53.5q-5 13 -7 27.5t-2 28.5t5 14q6 0 6 -8q0 -47 23.5 -71t58.5 -24t67.5 20t60.5 51q46 50 78 101.5t58.5 106t53.5 113.5q17 36 42.5 63t61.5 37l1 1h-55q-35 0 -74 -3t-70.5 -13t-45.5 -30q-9 -13 -9 -30t9 -33t23 -23q2 -2 2 -3
q0 -2 -4.5 -4.5t-9.5 -1.5q-8 5 -20 16.5t-21.5 24.5t-12.5 22q-4 12 -4 24q0 24 17.5 39t45.5 23t60.5 11.5t63 4t52.5 0.5h108q2 0 2 -1q0 -3 -6.5 -8.5t-8.5 -5.5q-25 -5 -37 -26.5t-11 -68.5l0.5 -22t1.5 -57t2 -75t2 -77t2 -62v-6l347 366q33 35 65.5 59.5t67.5 21.5
q1 0 1.5 -0.5l0.5 -0.5q0 -3 -4 -7t-9 -5q-26 1 -47 -20t-39 -50q-9 -15 -27 -47.5t-40.5 -76.5t-45.5 -93t-42.5 -96t-31.5 -85.5t-12 -62.5q0 -28 19 -28q8 0 17 4q13 5 29 15t29 23q26 25 46 51.5t24 30.5q3 4 5 4q4 0 4 -6t-4 -11q-8 -10 -27 -34.5t-44.5 -49.5
t-54.5 -38q-9 -4 -19 -6.5t-20 -2.5q-22 0 -39.5 13.5t-17.5 45.5q0 31 14.5 70.5t33 77t30.5 63.5q13 27 33 69t46 85l-288 -304q-1 -8 -7 -15.5t-19 -12.5q-7 -3 -19 -16t-16 -18q0 -1 -3 -1t-6 2t-2 3q26 33 27 91l1 24q2 42 3 88.5t1.5 87t0.5 66v25.5q0 24 7 42t17 31
q-17 -13 -33 -31t-27 -40q-15 -31 -34 -80t-43.5 -104t-54 -107.5t-65.5 -90.5q-25 -27 -63.5 -46t-72.5 -19z" />
    <glyph glyph-name="N" unicode="N" horiz-adv-x="721" 
d="M577 -30q-3 0 -5.5 2t-1.5 3q7 9 11.5 19.5t8.5 21.5q-13 70 -34.5 146t-46 152.5t-46.5 145.5q-7 -5 -14.5 -24t-10.5 -28q-13 -34 -30.5 -79.5t-39 -94t-48 -95t-58.5 -84.5q-15 -19 -41 -33.5t-54 -23t-51 -8.5q-31 0 -59.5 17.5t-42.5 53.5q-4 13 -6 27.5t-2 28.5
t5 14t5 -8q0 -47 26 -78t62 -31q35 0 70 17t63 47q45 50 76 106t55 116t49 120q15 38 42 66t63 35h-55q-35 0 -74 -3t-71 -13t-46 -30q-8 -12 -8 -29q0 -18 9 -34t23 -23l2 -2q0 -3 -4.5 -5.5t-9.5 -1.5q-8 5 -20 16.5t-21.5 24.5t-12.5 22q-4 12 -4 24q0 24 17.5 39
t45.5 23t60.5 11.5t62.5 4t52 0.5h121q5 1 0.5 -7t-11 -15.5t-10.5 -7.5q-10 1 -30.5 -3.5t-28.5 -10.5q3 -38 14.5 -89t27.5 -107.5t35.5 -113t38.5 -105.5q16 38 36 93t42.5 117t47 120.5t49 104.5t48.5 68q12 11 29 17.5t32 6.5q14 0 24 -6.5t9 -20.5l-1 -36q0 -1 -5 -2
t-4 0q1 13 -10 18.5t-18 5.5q-21 1 -44.5 -26t-48.5 -71t-49 -96.5t-45.5 -105t-38.5 -96.5t-28 -69q-10 -21 -10 -41v-6t1 -6q0 -4 1.5 -9t2.5 -10q0 -1 0.5 -2t0.5 -3q0 -8 -8 -14q-10 -7 -22 -12q-7 -3 -19.5 -15.5t-15.5 -17.5q-2 -2 -4 -2z" />
    <glyph glyph-name="O" unicode="O" horiz-adv-x="594" 
d="M232 -12q-40 0 -80 6.5t-72.5 23.5t-52.5 48t-20 80q0 41 16.5 94.5t49.5 108t82.5 101.5t115 75.5t147.5 28.5q120 0 175 -38.5t55 -119.5q0 -79 -32.5 -152t-90 -131t-132.5 -91.5t-161 -33.5zM224 3q61 0 116.5 23.5t101 64t79 92.5t52 109t18.5 113q0 62 -39 98
t-132 36q-53 0 -105.5 -26.5t-98 -70.5t-81 -97t-55.5 -107t-20 -101q0 -63 37.5 -98.5t126.5 -35.5z" />
    <glyph glyph-name="P" unicode="P" horiz-adv-x="541" 
d="M14 -19q-7 0 -11 3.5t0 5.5q22 4 38 16.5t26 31.5q21 35 41.5 70.5t39.5 71.5q23 44 47 88.5t48 88.5q23 41 41 79t27 55q7 13 24.5 23.5t34.5 16.5q-6 0 -12 0.5t-13 0.5q-31 0 -67.5 -3.5t-71 -10.5t-60.5 -19t-35 -29q-4 -9 -7 -18t-3 -18q0 -23 16 -33q1 0 1 -2
t-3.5 -4t-5.5 -1q-10 5 -22.5 24.5t-16.5 32.5q-3 12 -3 22q0 26 17 40.5t43 21t53.5 8t48.5 1.5q32 0 76 0.5t81 0.5q9 0 20 0.5t23 0.5q27 0 56 -3t53 -13t37 -31q20 -31 20 -66q0 -39 -22.5 -73.5t-56.5 -60.5t-69 -40q-33 -13 -73.5 -18t-72.5 -5q-10 0 -19.5 0.5
t-16.5 1.5q-2 0 -2 2q0 4 8 11.5t13 6.5q8 -1 16 -1h17q38 0 81 10t79.5 38.5t55.5 83.5q5 12 6.5 24.5t1.5 24.5q0 34 -17 60t-49 30q-4 1 -9 1h-10q-19 0 -41.5 -5t-33.5 -19q-25 -33 -48 -74.5t-44 -84t-40 -79.5q-5 -10 -19 -35.5t-31 -58t-32 -64.5t-23.5 -57t-4.5 -34
q1 -1 1 -3q0 -3 -3 -3q-8 0 -16 4t-19 4q-10 0 -20 -5q-10 -4 -26 -15t-36 -18q-2 -1 -6 -1z" />
    <glyph glyph-name="Q" unicode="Q" horiz-adv-x="599" 
d="M494 -269q-24 0 -45 10t-36 34q-16 26 -35.5 58t-38.5 64.5t-33.5 57.5t-20.5 36q-25 -3 -53 -3q-40 0 -80 6.5t-72.5 23.5t-52.5 48t-20 80q0 41 16.5 94.5t49.5 108t82.5 101.5t115 75.5t147.5 28.5q120 0 175 -38.5t55 -119.5q0 -67 -24 -131t-67.5 -117.5t-101.5 -92
t-127 -55.5q7 -15 22.5 -40t34.5 -54t38.5 -56.5t34.5 -48.5t34 -29.5t38 -8.5q29 0 56 13t47.5 28.5t27.5 23.5q3 3 5 3q3 0 4.5 -3.5t-1.5 -7.5q-14 -16 -42.5 -37t-63.5 -36.5t-69 -15.5zM224 3q61 0 116.5 23.5t101 64t79 92.5t52 109t18.5 113q0 62 -39 98t-132 36
q-53 0 -105.5 -26.5t-98 -70.5t-81 -97t-55.5 -107t-20 -101q0 -63 37.5 -98.5t126.5 -35.5z" />
    <glyph glyph-name="R" unicode="R" horiz-adv-x="602" 
d="M472 -23q-25 0 -50.5 15.5t-51.5 49.5q-32 44 -54 84t-35.5 70t-20.5 43l5 6.5t12.5 13t12.5 6.5q47 0 84.5 1.5t67 12t52.5 36.5t39 74q5 12 6.5 24.5t1.5 24.5q0 34 -17 60t-49 30q-4 1 -9 1h-10q-19 0 -41.5 -5t-33.5 -19q-25 -33 -48 -74.5t-44 -84t-40 -79.5
q-5 -10 -19 -35.5t-31 -58t-32 -64.5t-23.5 -57t-4.5 -34q1 -1 1 -3q0 -3 -3 -3q-8 0 -16 4t-19 4q-10 0 -20 -5q-10 -4 -26 -15t-36 -18q-2 -1 -6 -1q-7 0 -11 3.5t0 5.5q22 4 38 16.5t26 31.5q21 35 41.5 70.5t39.5 71.5q23 44 47 88.5t48 88.5q23 41 41 79t27 55
q7 13 24.5 23.5t34.5 16.5q-6 0 -12 0.5t-13 0.5q-31 0 -67.5 -3.5t-71 -10.5t-60.5 -19t-35 -29q-4 -9 -7 -18t-3 -18q0 -23 16 -33q1 0 1 -2t-3.5 -4t-5.5 -1q-10 5 -22.5 24.5t-16.5 32.5q-3 12 -3 22q0 26 17 40.5t43 21t53.5 8t48.5 1.5q32 0 76 0.5t81 0.5q9 0 20 0.5
t23 0.5q27 0 56 -3t53 -13t37 -31q17 -28 17 -64q0 -55 -29 -92q-10 -13 -22 -25t-28 -23q-26 -18 -62 -30.5t-74.5 -18.5t-70.5 -8q13 -28 39.5 -75t64.5 -94q20 -25 41 -35t41 -10q32 0 60.5 19t52 44.5t37.5 44.5q3 5 5 5q3 0 3 -6q0 -8 -6 -16q-46 -63 -88 -100.5
t-84 -37.5z" />
    <glyph glyph-name="S" unicode="S" horiz-adv-x="451" 
d="M221 -34q-35 0 -73.5 10.5t-68 34.5t-39.5 64q-1 5 -1.5 11t-0.5 12q0 31 14 60t34 44h1q2 0 5.5 -4.5t-0.5 -6.5q-10 -10 -14.5 -22.5t-4.5 -26.5q0 -19 6.5 -38.5t16.5 -33.5q25 -35 69.5 -55.5t87.5 -20.5q59 0 91.5 35t32.5 86q0 31 -12 62q-16 43 -42.5 84.5
t-48.5 81.5q-19 36 -19 73q0 39 24 75q24 32 63.5 51.5t80.5 19.5q28 0 54 -10t47 -33q6 -9 6 -23q0 -20 -8 -31q-9 -13 -20 -34t-13 -29q-2 -1 -9.5 -3.5t-9.5 0.5q4 8 11 29t7 38q0 11 -0.5 24.5t-13.5 23.5q-12 11 -31 19t-46 8q-55 0 -84 -32t-29 -70q0 -19 8 -38
q15 -36 42 -68t53.5 -65.5t41.5 -72.5q10 -26 10 -53q0 -39 -19.5 -71t-52 -55.5t-70.5 -36.5t-76 -13z" />
    <glyph glyph-name="T" unicode="T" horiz-adv-x="432" 
d="M148 -39q-31 0 -59 17.5t-42 53.5q-5 13 -7 28t-2 28v9q0 8 1.5 16t8.5 8q2 0 2 -2q0 -6 -0.5 -12.5t-0.5 -12.5q0 -47 23.5 -71t58.5 -24t68 20t61 51t53 77t47 97.5t41.5 101.5t36.5 89q10 23 37.5 39t52.5 23q-7 1 -13.5 1.5t-12.5 1.5l-141 14q-16 2 -42 3t-55 1
q-39 0 -80 -4.5t-74 -15.5t-48 -33q-8 -12 -8 -28t9 -30t23 -22q2 -2 2 -3q0 -3 -4.5 -5t-9.5 0q-9 5 -21 17t-21.5 25.5t-13.5 22.5q-6 17 -6 30q0 24 16.5 39.5t43 24t57 12t58.5 3.5h21t19 -1q32 -2 67 -4t71 -5l159 -13q16 -1 48.5 -3.5t66.5 -2.5q37 0 68 4.5t41 16.5
q2 4 6 2t2 -5q-3 -12 -8 -18q-5 -10 -13.5 -22t-25.5 -16q-4 -1 -11 -1.5t-15 -0.5q-23 0 -55.5 3.5t-63.5 7.5q-30 -5 -52 -28t-38 -52.5t-28 -55.5q-22 -45 -36.5 -82.5t-35.5 -82.5q-21 -46 -44 -90.5t-56 -80.5q-25 -27 -58 -43.5t-68 -16.5z" />
    <glyph glyph-name="U" unicode="U" horiz-adv-x="611" 
d="M146 -26q-32 0 -44.5 11t-12.5 28q0 11 3.5 22.5t7.5 23.5q13 32 27.5 63t30.5 61q16 31 38 74t43.5 90.5t36 92.5t14.5 79h-88q-15 0 -41.5 -2t-54 -9t-45.5 -23t-16 -43q1 -8 6 -21.5t7 -16.5l-11 -8q-6 11 -15 25.5t-16 28.5t-8 21q0 2 -0.5 5t-0.5 6q0 11 4 22.5
t14 20.5q15 13 41.5 17t54.5 4q27 0 52 -2t41 -2h23t58.5 0.5t75.5 0.5h73l-13 -15q-18 0 -37.5 -5.5t-33.5 -22.5q-21 -27 -47 -71t-53 -97t-50 -106t-38.5 -99.5t-19.5 -78.5q-1 -18 8.5 -26t25.5 -8q21 0 41 11q40 20 80 56.5t76 78.5t61 78q40 57 77.5 124t64.5 126
q7 12 12.5 27.5t15.5 15.5q4 0 10 -1t13 -1q31 0 57 25q1 1 5 1t6.5 -1.5t0.5 -3.5q-22 -18 -37 -36t-33 -46q-21 -32 -47.5 -74t-53.5 -88t-49 -91t-34 -82q-6 -19 -10 -38t-4 -35q0 -24 10.5 -39t35.5 -15q5 0 9.5 0.5t9.5 1.5q19 3 43.5 21.5t46.5 40.5q22 20 37.5 38.5
t33.5 40.5q2 -4 2 -8q-1 -7 -4.5 -14t-8.5 -12q-7 -9 -21 -25.5t-31 -34.5q-12 -12 -36 -31.5t-51.5 -34.5t-51.5 -15q-37 0 -51 19.5t-14 47.5q0 35 14.5 77t27.5 76q-21 -25 -44 -47.5t-46 -45.5q-24 -23 -48.5 -46.5t-50.5 -42.5q-24 -16 -50 -27t-54 -11z" />
    <glyph glyph-name="V" unicode="V" horiz-adv-x="538" 
d="M277 -49q-8 0 -13 2.5t-4 10.5q0 3 3 9t4 9q5 14 9 28.5t8 27.5q14 55 26 109.5t19 109.5q4 32 10 86.5t6 105.5q0 20 -1 37.5t-5 31.5q-33 0 -66 0.5t-65 0.5q-15 0 -41.5 -2t-54 -9t-45.5 -23t-16 -43q1 -8 6 -21.5t7 -16.5l-11 -8q-6 11 -15 25.5t-16 28.5t-8 21
q-1 10 1 26t16 28q15 13 41.5 17t54.5 4q27 0 52 -2t41 -2h23t58.5 0.5t75.5 0.5h73l-21 -26h-70q15 -28 19.5 -78t4.5 -96v-36t-1 -30q-2 -47 -13 -113t-28 -125q41 58 100.5 138t137 166.5t171.5 164.5q19 16 50 36t66 34.5t66 14.5q29 0 40.5 -10t11.5 -26
q0 -19 -11.5 -42t-17.5 -38q-1 -3 -9 -4t-7 3q2 8 4.5 19.5t2.5 23.5q0 16 -6 29t-23 15q-3 1 -6 1h-6q-29 0 -62.5 -19.5t-77.5 -54.5q-84 -67 -159.5 -147.5t-144.5 -168.5q-36 -45 -70 -91t-63 -96q-2 -4 -3.5 -9.5t-3.5 -8.5q-2 -2 -12 -6.5t-19.5 -8t-12.5 -3.5z" />
    <glyph glyph-name="W" unicode="W" horiz-adv-x="892" 
d="M277 -49q-8 0 -13 2.5t-4 10.5q0 3 3 9t4 9q5 14 9 28.5t8 27.5q14 55 26 109.5t19 109.5q2 14 3 32.5t1 39.5q0 48 -10 102t-39 88h-76q-15 0 -41.5 -2t-54 -9t-45.5 -23t-16 -43q1 -8 6 -21.5t7 -16.5l-11 -8q-6 11 -15 25.5t-16 28.5t-8 21q-1 10 1 26t16 28
q15 13 41.5 17t54.5 4q27 0 52 -2t41 -2h23t58.5 0.5t75.5 0.5h73l-21 -26q-30 0 -59.5 0.5t-59.5 0.5q32 -21 47.5 -55t20.5 -71t5 -69q0 -13 -0.5 -25t-0.5 -21q-2 -47 -13 -113t-28 -125q33 46 74.5 109.5t94 134t114.5 136.5q25 26 53 53t60 45t69 18q32 0 49 -10
l-6 -11q-4 1 -7.5 1.5t-8.5 0.5q-28 0 -59.5 -17t-48.5 -34q-31 -31 -48 -73.5t-24.5 -90t-11.5 -96t-7.5 -91.5t-12.5 -75q41 58 101.5 138t138.5 166.5t171 164.5q19 16 49.5 36t65 34.5t65.5 14.5q29 0 40.5 -10t11.5 -26q0 -19 -11.5 -42t-17.5 -38q-1 -3 -9 -4t-7 3
q2 8 4.5 19.5t2.5 23.5q0 16 -6 29t-23 15q-3 1 -6 1h-6q-28 0 -61 -19.5t-76 -54.5q-84 -67 -161 -147.5t-146 -168.5q-36 -45 -70 -91t-63 -96q-2 -4 -3.5 -9.5t-3.5 -8.5q-2 -2 -12 -6.5t-19.5 -8t-12.5 -3.5q-8 0 -13 2.5t-4 10.5q0 3 3 9t4 9q5 14 9 28.5t8 27.5
q12 44 17.5 93t11 98.5t17.5 95.5t37 83q-20 -12 -57 -58.5t-90 -112.5q-18 -22 -40 -54.5t-44.5 -68t-43 -69t-34.5 -58.5q-2 -4 -3.5 -9.5t-3.5 -8.5q-2 -2 -14.5 -6.5t-24.5 -8t-15 -3.5z" />
    <glyph glyph-name="X" unicode="X" horiz-adv-x="542" 
d="M-59 -59q-23 0 -37.5 13t-14.5 41q0 13 5.5 30.5t12.5 34.5q7 16 11 16t2 -8q-12 -28 -12 -47q0 -36 39 -36q5 0 10 0.5t10 1.5q47 10 101 48.5t111.5 94.5t113.5 116q-4 18 -6.5 35t-4.5 31q-4 29 -6.5 59.5t-2.5 58.5q0 29 3.5 52t12.5 36q-20 1 -40.5 1h-40.5
q-15 0 -41.5 -2t-54 -9t-45.5 -23t-16 -43q1 -8 6 -21.5t7 -16.5l-11 -8q-6 11 -15 25.5t-16 28.5t-8 21q-1 10 1 26t16 28q15 13 41.5 17t54.5 4q27 0 52 -2t41 -2h23t58.5 0.5t75.5 0.5h73l-21 -26q-31 0 -63 0.5t-64 0.5q-1 -7 -1 -13.5v-14.5q0 -36 5 -74t12 -72t12 -57
q26 27 62 62.5t76 72.5t80 69t75 51q20 11 40.5 17.5t41.5 6.5h8t8 -1q25 -4 34 -14.5t9 -24.5q0 -19 -10.5 -40.5t-17.5 -36.5q-1 -3 -8 -4t-6 3q2 8 4 19t2 22q0 19 -8.5 33t-33.5 14q-26 0 -55 -16q-31 -15 -71.5 -46.5t-82.5 -69t-79 -73t-61 -59.5q-1 -1 -1 -2.5
t-2 -3.5q3 -12 12.5 -40.5t22 -63t26.5 -66t27 -49.5q14 -20 35 -20q22 0 45 19t45 44.5t38 46.5q5 6 7 6t2 -5q0 -4 -2.5 -11.5t-7.5 -13.5q-23 -28 -50.5 -55.5t-56 -45t-54.5 -17.5q-33 0 -54 30q-23 32 -41 88.5t-30 111.5q-58 -62 -114.5 -122.5t-112.5 -104
t-111 -55.5q-5 -1 -9.5 -1.5t-9.5 -0.5z" />
    <glyph glyph-name="Y" unicode="Y" horiz-adv-x="452" 
d="M117 -39q-31 0 -59 17.5t-42 53.5q-5 13 -6.5 28t-1.5 29t5 14t5 -9q0 -46 23.5 -70.5t59.5 -24.5q44 0 82.5 24t70.5 59.5t57 71.5q-12 -7 -20 -7q-11 0 -10 8q0 2 1.5 5.5t2.5 5.5q3 8 5.5 17t5.5 17q8 32 16 80t8 97q0 42 -8 80t-29 62h-24q-15 0 -41.5 -2t-53.5 -9
t-45 -23t-16 -43q1 -8 6 -21.5t6 -16.5l-10 -8q-6 11 -15 25.5t-16.5 28.5t-8.5 21q-1 10 1.5 26t15.5 28q15 13 41.5 17t54.5 4q27 0 52 -2t41 -2l46.5 0.5t113.5 0.5l-21 -26q-28 0 -45.5 0.5t-31 1t-32.5 0.5q35 -24 48.5 -68t13.5 -94q0 -43 -7 -84.5t-15 -70.5
q47 65 90 134t96 130q17 19 40.5 43.5t52 43.5t57.5 19q14 0 24 -6t17 -21q5 -12 5 -22q0 -16 -6 -29t-9 -20q-1 -4 -5 -4t-3 4q2 5 2 10v9q0 18 -9 33t-29 15q-28 0 -62 -28t-63 -61q-52 -60 -89.5 -114t-70.5 -109.5t-71 -121.5q-21 -37 -48.5 -70.5t-62 -54.5t-80.5 -21z
" />
    <glyph glyph-name="Z" unicode="Z" horiz-adv-x="453" 
d="M640 -254q-40 0 -79 23t-75 58.5t-67 72.5t-55 64q-31 36 -58 66.5t-56 49.5t-66 19q-31 0 -61.5 -12.5t-53.5 -35t-32 -52.5q-3 -12 -6 -23t-10 -20q-7 -10 -20 -10q-10 0 -19.5 8t-9.5 21q0 12 7 23q27 43 77.5 97.5t114.5 113.5t131 116.5t127.5 107t103.5 84.5
q-47 1 -94.5 1.5t-94.5 0.5q-15 0 -41.5 -2t-53.5 -9t-45 -23t-16 -43q1 -8 6 -21.5t6 -16.5l-10 -8q-6 11 -15 25.5t-16 28.5t-8 21q0 2 -0.5 5t-0.5 6q0 11 4 22.5t14 20.5q16 14 46.5 18t62.5 4q25 0 47.5 -1t36.5 -1h233q1 0 1 -3t-2 -9t-4 -8q-126 -91 -248.5 -199.5
t-234.5 -229.5q30 16 56.5 23t50.5 7q42 0 78.5 -20.5t72 -57.5t74.5 -85q40 -47 81.5 -88.5t79.5 -66.5t65 -25q33 0 48 16t15 40q0 30 -20 62q-7 11 -14.5 20t-12.5 14q-1 2 5.5 6.5t7.5 3.5q11 -7 21 -15t18 -19q11 -13 15.5 -28t4.5 -29q0 -28 -15.5 -52.5t-41 -39.5
t-55.5 -16z" />
    <glyph glyph-name="bracketleft" unicode="[" horiz-adv-x="362" 
d="M9 -104q47 101 98 215t103.5 228t101.5 214l57 37q17 3 33.5 4t32.5 1q28 0 58.5 -1.5t67.5 -1.5l-47 -36q-30 7 -54.5 8.5t-44.5 -0.5q-12 -1 -26.5 -9t-21.5 -21q-21 -38 -50 -94t-61 -120t-63.5 -127.5t-58.5 -119t-45.5 -94t-25.5 -51.5q21 -1 51.5 -1.5t64.5 -0.5
q33 0 66 1t58 4l-54 -31q-28 -3 -66 -3.5t-78 -0.5h-96z" />
    <glyph glyph-name="backslash" unicode="\" horiz-adv-x="498" 
d="M494 -33q-13 0 -18 5q-23 29 -57.5 75t-77 103.5t-88.5 119.5t-91.5 122.5t-86.5 113t-74 90.5q-1 2 13.5 6t30.5 7.5t18 0.5q28 -33 65 -83.5t79.5 -111t86.5 -124t85 -123.5t74.5 -110t55.5 -83q0 -1 0.5 -1t0.5 -1q0 -3 -5 -4.5t-11 -1.5z" />
    <glyph glyph-name="bracketright" unicode="]" horiz-adv-x="397" 
d="M71 -107q-28 0 -58.5 1.5t-67.5 1.5l48 36q30 -7 54 -8t45 0q11 1 26 9t22 21q22 39 50.5 94.5t60.5 119.5t63.5 127.5t58 119t45.5 94t25 51.5q-20 0 -51 0.5t-64 0.5q-34 0 -66.5 -1t-57.5 -3l53 31q28 3 66 3.5t78 0.5h96q-47 -101 -98 -215.5t-103 -228t-102 -213.5
l-57 -37q-16 -3 -32.5 -4t-33.5 -1z" />
    <glyph glyph-name="asciicircum" unicode="^" horiz-adv-x="313" 
d="M309 249q-9 0 -25.5 8.5t-35 19.5t-33.5 22.5t-21 17.5q-5 -3 -20.5 -13.5t-33.5 -22.5t-32.5 -20.5t-17.5 -8.5q-2 0 -4 3t-1 5q0 4 17 17.5t40 29t42 27.5t25 13l5 -2q21 -23 46 -43l50 -40l4 -7z" />
    <glyph glyph-name="underscore" unicode="_" horiz-adv-x="846" 
 />
    <glyph glyph-name="grave" unicode="`" horiz-adv-x="223" 
d="M184 335q-6 1 -25.5 11.5t-43 24t-41.5 26t-21 16.5q-1 2 -2.5 9t-1.5 13q0 9 3 9q5 0 16 -8.5t22.5 -17.5t15.5 -13q17 -15 37.5 -32t39.5 -31l1 -3.5t0 -3.5z" />
    <glyph glyph-name="a" unicode="a" horiz-adv-x="294" 
d="M170 -3q-10 0 -17 4t-7 15q0 14 7 32t16 35.5t16 28.5q-35 -37 -73 -70q-19 -16 -42 -30t-49 -14q-10 0 -14 6.5t-4 15.5q0 5 1 7q5 39 25 81t49 79t59 60q34 26 75 26h115q5 0 5 -4q0 -8 -9 -8q-10 0 -20 -12.5t-15 -20.5q-7 -11 -22 -37t-30.5 -56.5t-26.5 -56.5
t-11 -38q0 -14 14 -14q15 0 34 14t38.5 34.5t36 41t26.5 32.5q6 -6 -0.5 -16.5t-11.5 -16.5q-20 -26 -46 -53.5t-56.5 -46t-62.5 -18.5zM62 32q12 0 33.5 17.5t46.5 44t47 56t36.5 54t14.5 37.5q0 11 -6.5 15t-16.5 4q-16 0 -34.5 -11.5t-29.5 -22.5q-12 -11 -28.5 -34.5
t-32.5 -51.5t-27 -54t-11 -42q0 -12 8 -12z" />
    <glyph glyph-name="b" unicode="b" horiz-adv-x="269" 
d="M76 -9q-13 0 -31 4.5t-18 22.5q0 7 3 16t6 16q10 26 21 53t23 55q-13 -15 -24.5 -27.5t-16.5 -18.5q-3 -4 -5 -4t-2 5q0 8 5 15q14 18 32 38t35 42q42 88 94 170.5t117 146.5q20 19 45 39t53.5 34t56.5 14q15 0 27.5 -8t13.5 -25v-29q0 -4 -6 -4q-3 0 -3 2q0 16 -14 21.5
t-28 5.5q-55 0 -99 -28.5t-78 -74t-61 -100t-48.5 -107t-40.5 -93.5v-2t1 -2t16.5 15.5t39 36.5t49.5 36.5t48 15.5q11 0 14 -7.5t3 -16.5v-9q-5 -37 -25.5 -80t-52 -81.5t-70 -62.5t-80.5 -24zM92 8q16 0 34.5 12.5t28.5 22.5q12 11 29 34.5t33 51.5t27 54t11 42q0 5 -2 9
t-7 4q-9 0 -23.5 -11t-31 -26.5t-30 -30t-19.5 -21.5q-11 -12 -28 -35t-30.5 -46.5t-13.5 -39.5q0 -20 22 -20z" />
    <glyph glyph-name="c" unicode="c" horiz-adv-x="238" 
d="M76 -8q-37 0 -52 14t-15 36q0 29 19 64.5t36 59.5q17 23 38.5 43.5t46.5 35.5q16 10 43.5 21.5t46.5 11.5q23 0 32 -10.5t9 -25.5q0 -12 -4 -24.5t-9 -23.5q-3 -6 -9 -8.5t-6 1.5q0 5 1 9t1 9q0 19 -8.5 37.5t-25.5 18.5q-18 0 -39 -12.5t-29 -21.5q-26 -27 -50.5 -67
t-35.5 -76q-7 -21 -7 -36q0 -17 9 -24t22 -7q10 0 21.5 3t24.5 7q30 10 60.5 31.5t55.5 46t38 42.5q2 -2 2 -6q0 -5 -4 -11.5t-6 -10.5q-21 -28 -55 -57.5t-73.5 -49.5t-77.5 -20z" />
    <glyph glyph-name="d" unicode="d" horiz-adv-x="294" 
d="M170 -3q-10 0 -17 4t-7 15q0 14 7 32t16 35.5t16 28.5q-35 -37 -73 -70q-19 -16 -42 -30t-49 -14q-10 0 -14 6.5t-4 15.5q0 5 1 7q5 39 25 81t49 79t59 60q23 17 44 21.5t46 4.5h33q16 27 33.5 60.5t35 66.5t32.5 58q41 70 90.5 112t110.5 42q13 0 24 -7.5t10 -22.5
l-2 -36q0 -1 -2 -2.5t-3 -1.5t-3 2q-3 18 -18 27.5t-37 9.5q-7 0 -15.5 -1t-16.5 -4q-28 -10 -53 -40.5t-54 -80.5q-10 -19 -26 -49.5t-33.5 -65.5t-33 -68t-26.5 -56q-5 -12 -17 -36.5t-25.5 -53t-23 -52.5t-9.5 -34q0 -14 12 -14t32 14.5t41.5 36t39 41.5t24.5 30
q3 -3 3 -7q0 -7 -5.5 -14t-9.5 -12q-18 -24 -44.5 -51.5t-57.5 -47t-63 -19.5zM62 32q12 0 33.5 17.5t46.5 44t47 56t36.5 54t14.5 37.5q0 11 -6.5 15t-16.5 4q-16 0 -34.5 -11.5t-29.5 -22.5q-12 -11 -28.5 -34.5t-32.5 -51.5t-27 -54t-11 -42q0 -12 8 -12z" />
    <glyph glyph-name="e" unicode="e" horiz-adv-x="249" 
d="M91 -8q-41 0 -57 16t-16 39q0 29 15.5 62t29.5 56q16 24 43 50t59 44t62 18q26 0 36 -12.5t10 -29.5q0 -31 -18.5 -51t-45.5 -32.5t-52 -20.5q-15 -4 -35 -8t-38 -4q-7 -18 -11 -35t-4 -31q0 -17 8.5 -28t28.5 -11q8 0 19 2t24 6q30 10 59 32t53.5 47.5t37.5 42.5
q3 -3 3 -7q0 -5 -7 -16q-20 -28 -52 -58t-71 -50.5t-81 -20.5zM92 139q13 -1 29.5 0.5t32.5 6.5q41 12 59.5 38.5t18.5 47.5q0 12 -5 20t-16 8q-29 0 -52 -21.5t-40 -49.5t-27 -50z" />
    <glyph glyph-name="f" unicode="f" horiz-adv-x="182" 
d="M-198 -226q-39 0 -65.5 12.5t-35.5 37.5q-1 3 -1.5 6t-0.5 7q0 15 7 33.5t15 39.5q3 6 7 6q7 0 4 -10q-7 -15 -7 -32q0 -35 30.5 -56.5t69.5 -21.5q30 0 58 14q47 24 77 66t53 85q35 67 60.5 140.5t54.5 145.5h-23q-5 0 -11 -1t-11 -2l-2 1q2 11 19.5 19.5t27.5 8.5h12
q15 36 35.5 79t44.5 86.5t52.5 79.5t59.5 57q51 36 113 36q12 0 23.5 -7.5t10.5 -22.5l-3 -36q0 -2 -3 -3t-4 1q-4 20 -21.5 29.5t-40.5 9.5q-37 0 -67.5 -24t-65.5 -89q-13 -25 -28.5 -59t-30.5 -70t-29 -67h72q7 0 14.5 0.5t14.5 1.5q0 -4 -5.5 -7.5t-9.5 -5.5
q-25 -13 -47 -14.5t-50 -0.5q-22 -55 -41.5 -104.5t-42.5 -96.5q-19 -42 -47 -89t-64 -89t-80.5 -68t-97.5 -26z" />
    <glyph glyph-name="g" unicode="g" horiz-adv-x="265" 
d="M-145 -350q-38 0 -73.5 17.5t-52.5 53.5q-7 13 -9 27.5t-2 28.5v10q0 8 2 15t11 7q2 0 2 -2q0 -6 -1 -12t-1 -13q0 -46 29.5 -70t73.5 -24q18 0 37 4t35 11q64 27 111.5 78t83 115t63 131.5t51.5 127.5q-21 -34 -46 -60.5t-56 -52.5q-19 -16 -41.5 -30t-48.5 -14
q-10 0 -14 6.5t-4 15.5v7q5 39 25.5 81t49.5 79t59 60q34 26 75 26h115q5 0 5 -4q0 -8 -9 -8q-11 0 -21 -9t-15 -17q-10 -16 -26 -49t-35 -75.5t-38 -86t-35 -81.5q-24 -57 -54.5 -111.5t-72 -98t-98.5 -68.5q-34 -15 -75 -15zM64 32q12 0 33 17.5t46 44t47 56t36.5 54
t14.5 37.5q0 11 -6.5 15t-16.5 4q-16 0 -34 -11.5t-29 -22.5q-12 -11 -28.5 -34.5t-33 -51.5t-27.5 -54t-11 -42q0 -12 9 -12z" />
    <glyph glyph-name="h" unicode="h" horiz-adv-x="294" 
d="M182 -6q-15 0 -26.5 6t-11.5 22q0 9 4 20q9 23 24.5 56t31.5 64.5t25 51.5q6 12 6 17q0 9 -10 4t-22 -14t-18 -14q-26 -24 -54.5 -56.5t-52 -68t-36.5 -70.5q-1 -6 -13 -10t-22 -4q-16 0 -12 10q23 52 47.5 115t55.5 129q23 50 51.5 103t63.5 101.5t77 85.5
q37 32 81.5 52.5t96.5 20.5q23 0 40 -9.5t19 -33.5v-9q0 -14 -3 -28q-1 -4 -8 -4q-3 0 -2 1q4 26 -13.5 37t-44.5 11q-49 0 -90 -18t-76 -48q-54 -47 -94 -120t-69 -149q-14 -37 -27.5 -74t-25.5 -69q45 60 86.5 103t72.5 61q25 14 45 14q19 0 19 -16q0 -14 -14 -36
q-7 -11 -21.5 -37t-30 -56.5t-26.5 -56.5t-11 -38q0 -16 14 -16q8 0 18.5 5t15.5 9q27 20 53 49t44 51q1 1 1 -3t-1.5 -11.5t-6.5 -12.5q-11 -15 -22.5 -28.5t-22.5 -26.5q-19 -22 -45.5 -42t-59.5 -20z" />
    <glyph glyph-name="i" unicode="i" horiz-adv-x="192" 
d="M242 382q-14 0 -20 9q-4 5 -4 13q0 16 15 26q11 6 20 6q15 0 21 -9q4 -5 4 -13q0 -16 -16 -26q-9 -6 -20 -6zM68 -3q-10 0 -16.5 4t-6.5 15q0 14 7.5 33t17 38t14.5 31q7 14 17.5 36.5t20 43t13.5 28.5q-14 -15 -33.5 -37.5t-36.5 -43.5t-26 -33q-3 -4 -5 -4t-2 5
q0 8 5 15q19 24 42.5 54t42.5 55.5t24 33.5q11 2 32.5 6t29.5 11q3 3 6 3q2 0 2.5 -3.5t-2.5 -7.5q-6 -7 -21 -34t-31.5 -59.5t-30.5 -58.5q-14 -27 -24 -52t-10 -36q0 -14 14 -14q13 0 33.5 16t41.5 38.5t37 41.5q5 6 12.5 14.5t9.5 10.5q2 -2 2 -7q-1 -7 -5 -13.5
t-8 -11.5q-21 -26 -46 -53.5t-55 -46t-65 -18.5z" />
    <glyph glyph-name="j" unicode="j" horiz-adv-x="135" 
d="M195 382q-14 0 -20 9q-4 5 -4 13q0 16 16 26q9 6 20 6q14 0 20 -9q4 -5 4 -13q0 -16 -16 -26q-9 -6 -20 -6zM-283 -350q-38 0 -73.5 17.5t-52.5 53.5q-6 13 -8 27.5t-2 28.5v11q0 8 2 14.5t10 6.5q3 0 3 -2q0 -6 -1.5 -12t-1.5 -13q0 -46 29.5 -70t73.5 -24q18 0 37 4
t36 11q63 27 109.5 76.5t81.5 111.5t63 126q24 56 40 105t25.5 81t12.5 35q16 16 42 26.5t41 10.5q12 0 12 -6q0 -8 -9 -8q-11 0 -20 -5.5t-14 -13.5q-9 -13 -25.5 -47t-36 -78.5t-38.5 -90t-35 -83.5q-24 -57 -54.5 -111.5t-72.5 -98t-99 -68.5q-34 -15 -75 -15z" />
    <glyph glyph-name="k" unicode="k" horiz-adv-x="324" 
d="M213 -5q-25 0 -38 17q-8 12 -16 36t-14 50t-10 42q-28 -36 -49.5 -72t-28.5 -56q-2 -6 -13.5 -10t-22.5 -4q-16 0 -12 10q31 69 59 133t59.5 129t71.5 135q28 51 67.5 98.5t84.5 78t91 30.5q15 0 28 -8t13 -25v-29q0 -4 -6 -4q-3 0 -3 2q0 16 -14 21.5t-27 5.5
q-35 0 -71 -14q-40 -16 -67 -48t-50 -68q-30 -46 -59 -107.5t-53.5 -123.5t-43.5 -112l22 28t21 26q0 2 -0.5 4t-0.5 4q0 7 3 12t8 12q7 10 13 15.5t13 14.5l3 -17q44 45 77 65q23 14 45 14t22 -17q0 -14 -14 -35q-5 -7 -6 -10t-4 -6q-1 -1 -4 0t-3 3q0 12 -8 15.5t-18 3.5
q-19 0 -40.5 -13.5t-43.5 -36.5q5 -25 11.5 -54.5t14.5 -54.5t15 -37q5 -8 14 -10.5t15 -2.5q14 0 32.5 14.5t38 35t36 40.5t25.5 32q4 -5 2 -10q-1 -6 -5.5 -12.5t-8.5 -11.5q-20 -25 -43 -50.5t-49 -45.5q-11 -9 -27 -15.5t-32 -6.5z" />
    <glyph glyph-name="l" unicode="l" horiz-adv-x="214" 
d="M100 -2q-30 0 -41 14.5t-11 35.5q0 28 12.5 60t20.5 50q-13 -14 -25 -27t-17 -19q-3 -4 -5 -4t-2 5q0 8 5 15q14 18 32 38t35 42q20 37 44.5 86.5t51 102t52 97t45.5 71.5q17 7 32.5 18t31 20.5t32.5 9.5q11 0 16.5 -6t7.5 -14q1 -3 1 -11q0 -23 -15.5 -56t-36 -64.5
t-35.5 -51.5q-40 -56 -82 -101.5t-75.5 -76t-48.5 -44.5q-7 -13 -16.5 -34.5t-16.5 -45t-7 -43.5q0 -17 8 -28.5t27 -11.5h6t7 1q17 3 37 19t40 37t36 40q7 8 13 15.5t8 10.5q7 -7 -0.5 -17.5l-12.5 -17.5q-7 -9 -20 -24.5t-30 -33.5q-19 -19 -47 -38t-57 -19zM142 228
q31 26 78.5 74.5t93.5 117.5q5 8 16.5 27t24 43.5t21.5 48t9 40.5q0 16 -9 16q-11 0 -29 -19q-21 -22 -47.5 -64.5t-55.5 -94.5t-55.5 -102t-46.5 -87z" />
    <glyph glyph-name="m" unicode="m" horiz-adv-x="470" 
d="M40 -15q-4 0 0 9q5 9 9.5 20t9.5 24q10 24 22 54t23 58.5t19.5 49t11.5 26.5q-14 -15 -33.5 -37.5t-36.5 -43.5t-26 -33q-3 -4 -5 -4t-2 5q0 8 5 15q19 24 42.5 54t42.5 55.5t24 33.5q11 2 32.5 6t29.5 11q3 3 6 3q2 0 2.5 -3.5t-2.5 -7.5q-6 -7 -20.5 -32.5t-31 -56.5
t-30.5 -56q16 19 31.5 36t21.5 24q12 12 33 30t44 33t40 17q4 1 7 1h6q19 0 19 -14q0 -6 -3 -14t-8 -16q-6 -12 -20 -37.5t-25 -46.5l47 47q12 12 33 30t44 33t40 17q4 1 7.5 1h5.5q22 0 22 -16q0 -12 -13 -32q-7 -11 -22 -37t-30.5 -56.5t-26.5 -56.5t-11 -38q0 -14 14 -14
q13 0 33.5 15.5t42 37.5t37.5 42q7 8 13.5 16.5t7.5 9.5q2 -2 2 -7q0 -7 -4.5 -13.5t-8.5 -11.5q-19 -25 -43.5 -52t-53.5 -45.5t-62 -21.5q-10 -1 -20 4t-10 16q0 14 7.5 33t17 38t14.5 31q18 35 33 66t21 44q3 6 3 10q0 7 -11 1t-26.5 -18t-28.5 -23.5t-17 -15.5
q-17 -17 -40.5 -46t-43.5 -60.5t-28 -58.5q-10 -9 -19 -9q-7 0 -11.5 5t-4.5 12q0 20 12.5 47.5t20.5 45.5q18 35 33 66t21 44q3 6 3 10q0 7 -11 1t-26.5 -18t-28.5 -23.5t-17 -15.5q-24 -25 -44.5 -51t-34.5 -56q-8 -18 -17 -40t-15 -37q-13 -1 -26 -7t-18 -6z" />
    <glyph glyph-name="n" unicode="n" horiz-adv-x="330" 
d="M40 -15q-4 0 0 9q5 9 9.5 20t9.5 24q10 24 22 54t23 58.5t19.5 49t11.5 26.5q-14 -15 -33.5 -37.5t-36.5 -43.5t-26 -33q-3 -4 -5 -4t-2 5q0 8 5 15q19 24 42.5 54t42.5 55.5t24 33.5q11 2 32.5 6t29.5 11q3 3 6 3q2 0 2.5 -3.5t-2.5 -7.5q-6 -7 -20.5 -32.5t-31 -56.5
t-30.5 -56q12 16 26 31t27 29q12 12 33 30t44 33t40 17q4 1 7.5 1h5.5q22 0 22 -16q0 -12 -13 -32q-7 -11 -21.5 -36.5t-29 -55t-25 -55t-10.5 -37.5q0 -14 14 -14q17 0 37.5 17t44.5 43.5t48 56.5q2 -2 2 -7q0 -7 -4.5 -13.5t-8.5 -11.5q-10 -13 -26.5 -32.5t-33.5 -38
t-31 -29.5q-10 -7 -26 -15t-32 -8q-18 0 -25 9.5t-7 23.5q0 16 6 34t13.5 34.5t11.5 24.5q18 35 33 66t21 44q3 6 3 10q0 7 -11 1t-26.5 -18t-28.5 -23.5t-17 -15.5q-37 -39 -64.5 -86.5t-46.5 -97.5q-13 -1 -26 -7t-18 -6z" />
    <glyph glyph-name="o" unicode="o" horiz-adv-x="265" 
d="M50 -2q-16 0 -28.5 6.5t-12.5 28.5q0 35 18 70.5t37 62.5q17 23 38.5 43.5t46.5 35.5q16 10 43.5 21.5t46.5 11.5q16 0 28 -8.5t12 -30.5q0 -34 -17.5 -69.5t-36.5 -62.5q-9 -12 -18 -22.5t-20 -21.5q37 0 68 21.5t54 52.5l2 2q3 0 3 -6q0 -7 -4 -13q-20 -28 -50 -49.5
t-68 -21.5h-8t-8 1q-56 -52 -126 -52zM76 15q14 0 30.5 10t25.5 19q17 17 31 36.5t26 39.5q14 24 28 57t14 62q0 23 -16 23q-13 0 -31.5 -11t-27.5 -20q-34 -35 -57 -76q-13 -23 -28 -54t-15 -57q0 -4 0.5 -7.5t1.5 -7.5q4 -14 18 -14z" />
    <glyph glyph-name="p" unicode="p" horiz-adv-x="255" 
d="M-283 -350q-38 0 -73.5 17.5t-52.5 53.5q-6 13 -8 27.5t-2 28.5v11q0 8 2 14.5t10 6.5q3 0 3 -2q0 -6 -1.5 -12t-1.5 -13q0 -46 29.5 -70t73.5 -24q18 0 37 4t36 11q63 27 110 76t82 111t62 127q29 71 55.5 140.5t59.5 136.5q31 62 66 93t70 31q9 0 17.5 -5t7.5 -16
l-2 -28q0 -3 -4 -3h-0.5t-0.5 1q0 12 -8.5 16.5t-16.5 4.5q-34 0 -60.5 -23.5t-46.5 -60.5t-34 -77.5t-23 -74.5q7 6 25.5 25t43.5 41t51 38t48 16q13 0 15.5 -11.5t0.5 -21.5q-5 -37 -25 -80t-51.5 -81.5t-70 -62.5t-80.5 -24q-5 0 -13.5 0.5t-10.5 2.5q-21 -63 -54 -129
t-79.5 -119.5t-110.5 -80.5q-34 -15 -75 -15zM75 8q15 0 34.5 12.5t29.5 22.5q12 11 28.5 34.5t33 51.5t27.5 54t11 42q0 5 -2 9t-7 4q-9 0 -24 -11t-31.5 -26.5t-30.5 -30t-20 -21.5q-10 -12 -27 -35t-30 -46.5t-13 -39.5q0 -20 21 -20z" />
    <glyph glyph-name="q" unicode="q" horiz-adv-x="279" 
d="M-1 -342q-7 0 -7 7q1 7 14.5 40t34.5 82t44.5 103t45.5 102.5t37.5 81.5t18.5 38q-17 -18 -36 -35.5t-38 -34.5q-19 -16 -41.5 -30t-48.5 -14q-10 0 -14 6.5t-4 15.5v7q5 39 25.5 81t49.5 79t59 60q32 26 75 26h115q5 0 5 -4q0 -8 -9 -8q-11 0 -21 -12.5t-15 -20.5
q-25 -39 -54 -91.5t-57.5 -111t-53 -114t-40.5 -99.5q23 37 54 81.5t65.5 90t68 88t59.5 75.5q2 -4 2 -6q0 -10 -10 -23q-34 -45 -74.5 -99t-79.5 -111.5t-70 -113t-47 -105.5q-1 -4 -11 -11.5t-22 -13.5t-20 -6zM64 32q12 0 33 17.5t46 44t47 56t36.5 54t14.5 37.5
q0 11 -6.5 15t-16.5 4q-16 0 -34 -11.5t-29 -22.5q-12 -11 -28.5 -34.5t-33 -51.5t-27.5 -54t-11 -42q0 -12 9 -12z" />
    <glyph glyph-name="r" unicode="r" horiz-adv-x="272" 
d="M40 -14q-4 0 0 8q5 9 9.5 20t9.5 24q10 24 22 54t23 58.5t19.5 49t11.5 26.5q-14 -15 -33.5 -37.5t-36.5 -43.5t-26 -33q-3 -4 -5 -4t-2 5q0 8 5 15q19 24 42.5 54t42.5 55.5t24 33.5q11 2 32.5 6t29.5 11q3 3 6 3q2 0 2.5 -3.5t-2.5 -7.5q-6 -6 -17.5 -26t-25.5 -46
t-27 -50q10 15 26.5 35.5t36.5 40t40.5 32.5t38.5 13q13 0 22 -5.5t14 -19.5q3 -7 3 -16q0 -17 -8.5 -32.5t-12.5 -23.5q-1 -3 -7 -5.5t-5 1.5q1 5 1.5 10t0.5 11q0 17 -6.5 31t-23.5 14q-16 0 -39 -20t-46 -46q-29 -34 -46 -64.5t-28 -59.5q-6 -16 -12 -31.5t-9 -24.5
q-13 -1 -26 -6.5t-18 -5.5z" />
    <glyph glyph-name="s" unicode="s" horiz-adv-x="232" 
d="M94 -16q-18 0 -38 5t-35.5 16.5t-20.5 31.5q-1 3 -1 9q0 14 6.5 31t16.5 24q4 2 6.5 0t0.5 -4q-1 -3 -3 -7.5t-3 -9.5q-3 -26 11 -46q6 -8 14.5 -15t16.5 -12q7 -4 17 -5.5t20 -1.5q16 0 31 4t22 13q13 16 13 36q0 15 -8 32t-25 36q-11 12 -21 26t-13 30q-1 3 -1.5 6
t-0.5 6q-13 -19 -26.5 -35.5t-23.5 -28.5q-4 -6 -7 -6q-2 0 -2 4q0 9 8 19q8 9 18 22.5t16 21.5q17 25 25.5 39.5t18.5 26.5q11 13 27.5 21t34.5 8q21 0 38.5 -6.5t18.5 -32.5q0 -12 -4.5 -24.5t-9.5 -23.5q-3 -6 -8.5 -8.5t-5.5 1.5t1 9t1 9q0 17 -6 30q-5 14 -15 20.5
t-21 6.5q-16 0 -31 -12.5t-15 -32.5v-5t1 -5q4 -16 24 -36t31 -35q19 -26 19 -53t-15.5 -49.5t-41 -36t-55.5 -13.5z" />
    <glyph glyph-name="t" unicode="t" horiz-adv-x="198" 
d="M74 -3q-10 0 -17 4t-7 15q0 14 7.5 33t16.5 38t15 31q5 9 13.5 28.5t18 41t16 36.5l6.5 15q-9 -10 -23.5 -28t-31 -37.5t-30 -36.5t-19.5 -25q-3 -4 -5 -4t-2 5q0 8 5 15q12 15 29 36.5t34.5 43.5t30.5 39q-8 0 -20.5 -1t-22.5 -2.5t-11 -1.5q-5 0 1 8t16 16t15 8
q1 0 16 -0.5t22 -0.5q20 27 39.5 62t38.5 77q8 1 27.5 11.5t30.5 21.5q5 5 8 5q6 0 0 -8q-7 -8 -24 -33.5t-38 -61t-40 -74.5h81q11 0 11 -3q0 -4 -15 -8q-17 -5 -35.5 -6t-34 -4t-22.5 -13q-6 -7 -17 -30t-23.5 -52.5t-21.5 -59t-11 -49.5v-4q0 -8 5 -13t10 -5
q13 0 33.5 16t42.5 38.5t38 41.5q7 8 12.5 15t6.5 9q2 -4 2 -6q0 -6 -3.5 -13t-7.5 -12q-19 -25 -46 -52.5t-57.5 -46.5t-62.5 -19z" />
    <glyph glyph-name="u" unicode="u" horiz-adv-x="393" 
d="M90 -3q-10 0 -17 4t-7 15q0 14 7.5 33t16.5 38t15 31q12 23 23 46t19 39q8 15 8 20q0 8 -11.5 0t-21.5 -16q-22 -21 -46 -49.5t-37 -45.5q-3 -4 -5 -4t-2 5q0 8 5 15q14 20 33 44t39 46q19 20 39 39t51 19q21 0 21 -16q0 -14 -12 -32q-7 -11 -22 -37t-30.5 -56.5
t-26.5 -56.5t-11 -38q0 -14 14 -14q11 0 27 11.5t33 27.5q31 30 56.5 65.5t44 68.5t29.5 54q2 4 4.5 9.5t8.5 6.5t26 1t37 8h2q3 0 3 -3q0 -8 -13 -12q-12 -4 -27.5 -24t-30.5 -48.5t-27 -58.5t-18 -55t-3 -37q4 -14 14 -14q13 0 36.5 16t48.5 38.5t41 41.5q7 8 13 16t8 10
q1 -1 2 -3.5t1 -4.5q-1 -7 -5 -13.5t-9 -11.5q-19 -25 -45.5 -52.5t-57 -46.5t-62.5 -19q-10 0 -22.5 5t-12.5 22q0 13 7 35.5t15.5 45t14.5 33.5q-13 -19 -31.5 -42.5t-37.5 -41.5q-25 -24 -53.5 -40.5t-58.5 -16.5z" />
    <glyph glyph-name="v" unicode="v" horiz-adv-x="294" 
d="M116 -6q-14 0 -24 10t-10 35q0 22 3.5 52t10.5 61.5t16 55.5q-17 -25 -38 -51.5t-35 -44.5q-3 -4 -5 -4t-2 5q0 8 5 15q21 29 47.5 66t45.5 67q11 2 26.5 6t22.5 11q5 3 6 3q3 0 3 -3.5t-3 -7.5q-9 -13 -19.5 -40t-21 -60t-17 -64.5t-6.5 -53.5q0 -16 5 -22.5t13 -6.5
q11 0 26.5 11t26.5 23q14 15 31.5 40t33 53t23.5 51q6 16 8 27.5t2 18.5q0 12 -3 17t-5 6q-6 2 -6 5q0 2 4 3.5t8 -0.5q13 -4 26 -11.5t13 -28.5q0 -5 -1 -11.5t-4 -14.5q-6 -16 -24.5 -45t-42.5 -61t-48 -58t-42 -37q-12 -7 -25 -12t-24 -5z" />
    <glyph glyph-name="w" unicode="w" horiz-adv-x="500" 
d="M116 -6q-14 0 -24 10t-10 35q0 22 3.5 52t10.5 61.5t16 55.5q-17 -25 -38 -51.5t-35 -44.5q-3 -4 -5 -4t-2 5q0 8 5 15q21 29 47.5 66t45.5 67q11 2 26.5 6t22.5 11q5 3 6 3q3 0 3 -3.5t-3 -7.5q-9 -13 -20 -40.5t-21 -61t-16.5 -65.5t-6.5 -53q0 -16 5.5 -22t12.5 -6
q14 0 29.5 13t31 32t27.5 37t18 28q20 32 38.5 69.5t31.5 59.5q11 2 26.5 6t23.5 11q3 3 5 3q3 0 3.5 -3.5t-2.5 -7.5q-9 -13 -19 -40t-19.5 -59.5t-15.5 -64t-6 -53.5q0 -30 22 -30q15 0 33.5 11t30.5 23q34 35 57 69t39 78q6 15 8 26.5t2 21.5q0 14 -4.5 22.5t-9.5 9.5
q-5 2 -5 5q0 2 5 4.5t11 1.5q16 -4 27.5 -14.5t11.5 -30.5q0 -16 -7 -34q-14 -37 -40.5 -76.5t-59.5 -73.5t-69 -55q-13 -7 -27 -12t-27 -5q-16 0 -27.5 10t-11.5 35q0 26 5.5 62t14.5 70q-7 -11 -13.5 -23.5t-14.5 -25.5q-25 -36 -51.5 -68t-45.5 -43q-12 -7 -25 -12
t-24 -5z" />
    <glyph glyph-name="x" unicode="x" horiz-adv-x="299" 
d="M194 -6q-10 0 -20 5q-13 6 -25 24t-20 38t-11 33q-28 -24 -48 -47t-46 -49q-3 -3 -15 -3q-7 0 -14 2t-7 6q0 5 6 9q35 28 61 48.5t60 48.5q-1 5 -4 22t-6.5 37t-5.5 35.5t-2 18.5q2 12 13 21.5t25.5 15t25.5 5.5q14 0 14 -7q0 -4 -8 -4q-13 0 -16 -11t-4 -18
q-1 -6 -1.5 -12t-0.5 -12q0 -15 2 -30t5 -29l20 16l35 28l40 32t34 27t17 13q12 8 29.5 7.5t30.5 -0.5q3 0 3 -6q0 -9 -4 -9q-14 -1 -28.5 -6.5t-22.5 -9.5q-23 -10 -50.5 -29.5t-53.5 -40t-46 -37.5q2 -9 8.5 -31t16.5 -42q12 -26 29 -26q14 0 27 16t22.5 36.5t12.5 34.5
q2 6 5 6q7 0 5 -11q-5 -23 -17 -50t-30 -46t-41 -19z" />
    <glyph glyph-name="y" unicode="y" horiz-adv-x="344" 
d="M-69 -350q-38 0 -73.5 17.5t-52.5 53.5q-6 13 -8 27.5t-2 28.5v11q0 8 2 14.5t10 6.5q2 0 2 -2q0 -6 -1 -12t-1 -13q0 -46 29.5 -70t73.5 -24q18 0 37 4t36 11q63 27 109.5 76.5t81.5 111.5t63 126q16 38 28.5 74t22.5 65q-10 -14 -26 -34t-32 -38.5t-28 -29.5
q-25 -24 -53.5 -40.5t-58.5 -16.5q-10 0 -17 4t-7 15q0 14 7.5 33t16.5 38t15 31q12 23 23 46t19 39q8 15 8 20q0 8 -11.5 0t-21.5 -16q-22 -21 -46 -49.5t-37 -45.5q-3 -4 -5 -4t-2 5q0 8 5 15q14 20 33 44t39 46q19 20 39 39t51 19q21 0 21 -16q0 -14 -12 -32
q-7 -11 -22 -37t-30.5 -56.5t-26.5 -56.5t-11 -38q0 -14 14 -14q11 0 27 11.5t33 27.5q29 28 53.5 62t42.5 65q3 5 10.5 18t16 25t13.5 14t20 11t30 12q14 3 21 3q11 0 11 -6q0 -8 -9 -8q-11 0 -20 -5.5t-14 -13.5q-9 -13 -25.5 -47t-36 -78.5t-38.5 -90t-35 -83.5
q-24 -57 -55 -111.5t-72.5 -98t-98.5 -68.5q-34 -15 -75 -15z" />
    <glyph glyph-name="z" unicode="z" horiz-adv-x="234" 
d="M305 -127q-15 0 -30 8.5t-37.5 31.5t-62.5 68q-22 26 -41.5 46t-47.5 20q-22 0 -43 -13.5t-27 -35.5q-1 -6 -3 -11t-5 -10t-10 -5q-5 0 -9.5 4t-4.5 11q0 3 4 11q5 9 19 24.5t31 33.5t32 33.5t24 22.5q41 35 76.5 67.5t77.5 66.5q-13 0 -36 -1t-48.5 -3t-44.5 -6t-24 -11
q-7 -9 -14 -9q-4 0 -4 3t5 8q9 10 14 19.5t10 18.5q11 -1 22 -1.5t23 -0.5q30 0 61.5 1.5t58.5 1.5q9 0 14.5 -12.5t6.5 -19.5q-34 -25 -76 -54.5t-82 -61.5q-19 -14 -43.5 -36.5t-41.5 -36.5q28 14 52 14q32 0 57.5 -21t55.5 -50q30 -30 60 -52t51 -22q7 1 14 3t12 6
q8 7 8 16q0 11 -9 22.5t-16 15.5q-1 1 -1 2q0 3 4 5t8 0q13 -7 21 -20t8 -29t-10 -30q-9 -13 -25 -22.5t-34 -9.5z" />
    <glyph glyph-name="braceleft" unicode="{" horiz-adv-x="354" 
d="M225 -101q-18 0 -42 1.5t-46 7t-36 18t-11 34.5q5 38 22 71.5t34 67.5t21 71q5 32 -23 43t-66 15l13 13q62 1 99.5 25t62.5 76q7 14 12.5 29t11.5 30q14 36 39 69t64 57.5t94 32.5q5 0 12.5 0.5t15.5 0.5q10 0 18 -1t10 -3q2 -3 4.5 -7t2.5 -6q-19 4 -46 2
q-38 -3 -64 -16.5t-46 -45.5q-18 -32 -33 -70.5t-34 -73.5t-49 -58q-44 -36 -103 -50q27 -6 47.5 -22.5t16.5 -47.5q-4 -36 -20 -69t-31.5 -65.5t-20.5 -68.5q-3 -28 10.5 -35t35.5 -9q3 0 7.5 -0.5t9.5 -0.5q7 0 14 0.5t12 1.5q-3 -7 -8.5 -12t-9.5 -5z" />
    <glyph glyph-name="bar" unicode="|" horiz-adv-x="364" 
d="M64 0q6 17 23 59.5t41 100.5t50 122t50.5 123.5t43 105t26.5 66.5h47q-4 -6 -18 -37.5t-34.5 -80.5t-44 -106.5t-47 -116t-44 -108.5t-34 -84.5t-17.5 -43.5h-42z" />
    <glyph glyph-name="braceright" unicode="}" horiz-adv-x="411" 
d="M-3 -103q-9 0 -16 1t-9 3q-5 6 -7 13q19 -4 47 -2q38 3 64 16.5t45 45.5t34 70.5t34 74t48 58.5q21 16 48 29t55 20q-27 6 -47.5 22.5t-16.5 47.5q5 37 20.5 69.5t31.5 65t20 68.5q3 29 -10 35.5t-36 8.5q-3 0 -7 0.5t-9 0.5q-7 0 -14 -0.5t-13 -1.5q4 7 9 12.5t9 5.5
q18 0 42 -1.5t46 -7.5t36 -18.5t11 -34.5q-4 -37 -21.5 -71t-34.5 -67.5t-21 -70.5q-4 -33 23.5 -44t66.5 -15l-13 -13q-62 -1 -99.5 -24.5t-62.5 -76.5q-7 -14 -13 -29l-12 -30q-14 -35 -39 -68.5t-63.5 -57.5t-94.5 -32q-12 -2 -31 -2z" />
    <glyph glyph-name="asciitilde" unicode="~" horiz-adv-x="277" 
d="M244 319q-22 0 -41.5 7t-38 13.5t-38.5 6.5q-13 0 -23.5 -6.5t-19.5 -14.5l-8 10q10 8 26 19.5t29 11.5q18 0 35.5 -7t36.5 -14t43 -7q16 0 24.5 6.5t21.5 14.5l6 -7q-7 -7 -24.5 -20t-28.5 -13z" />
    <glyph glyph-name="DEL" horiz-adv-x="846" 
 />
    <glyph glyph-name="uni00A0" unicode="&#xa0;" horiz-adv-x="169" 
 />
    <glyph glyph-name="exclamdown" unicode="&#xa1;" horiz-adv-x="245" 
d="M236 414q-7 5 -15.5 9.5t-17.5 2.5h-4q-5 0 -5 3t7 10q9 8 18.5 15.5t18.5 7.5q11 0 21 -7t16 -15q1 -1 -8 -7.5t-19 -12.5t-12 -6zM-31 -118q-3 0 -6 8.5t-1 9.5q5 3 14 17.5t17 29t9 17.5q30 58 60 117t55.5 110l42.5 85l21 42q3 7 15.5 12t10.5 -1q-3 -7 -14 -36
t-27 -70.5t-33.5 -88t-34.5 -90t-29 -75.5q-5 -13 -11 -29.5t-9 -23.5q-13 -3 -36 -10t-43 -24h-1z" />
    <glyph glyph-name="cent" unicode="&#xa2;" horiz-adv-x="375" 
d="M112 -49q7 21 18 52t24 68q-4 0 -8 1l-8 2q-42 10 -63 41.5t-21 73.5q0 48 28.5 102.5t84.5 97.5q25 19 61 32.5t70 17.5q9 23 16.5 41t12.5 31q2 5 13.5 8.5t9.5 -1.5q-2 -7 -10 -27t-20 -51q16 0 29.5 -2t27.5 -9t22 -16.5t5 -23.5q-2 -10 -11.5 -22.5t-14.5 -26.5
q-1 -3 -7 -4.5t-5 1.5q9 15 9 39q0 21 -7 32q-7 12 -21.5 16t-31.5 3q-16 -44 -37 -101t-42.5 -117t-40.5 -114q35 -1 69.5 13.5t64 39t48.5 53.5q1 2 3 2q4 0 5.5 -6t-0.5 -8q-33 -53 -86 -86.5t-114 -34.5q-10 -31 -19 -57t-14 -45q0 -1 -10.5 -5.5t-20 -8t-9.5 -1.5z
M165 100q20 53 42 110.5t44.5 113t40.5 100.5q-12 -3 -21 -6q-36 -14 -67 -40q-44 -39 -70 -92.5t-26 -99.5q0 -31 13 -54t41 -31z" />
    <glyph glyph-name="sterling" unicode="&#xa3;" horiz-adv-x="621" 
d="M467 -34q-60 2 -127 8.5t-132.5 14t-123.5 11.5q-22 2 -44.5 -5t-34.5 -17q-1 0 -1 -0.5t-1 -0.5q-3 0 -3 8q0 7 4.5 14t15.5 8q30 1 58 18t50 41.5t33 46.5l63 127q-25 0 -49.5 -0.5t-44.5 -2.5q-2 0 3.5 8t14 16t13.5 7q10 -1 31.5 -2t43.5 -1l44 86q24 48 53.5 93
t71 74t101.5 29q24 0 49.5 -5.5t43.5 -18.5t18 -36q0 -8 -3 -17q-4 -16 -21 -32.5t-28 -41.5q-3 -7 -10 -7q-8 0 -2 9q23 31 23 75q0 25 -12 43.5t-41 18.5q-27 0 -56 -15t-53 -52l-131 -204q24 0 53.5 0.5t55.5 1.5t38 1q3 0 -3 -8t-14.5 -16t-13.5 -8q-11 1 -33.5 2t-47 2
t-42.5 1h-8l-82 -126q-32 -50 -57 -70.5t-40 -25.5l21.5 -0.5t53.5 -1.5t66 -2t58 -2q28 -1 57.5 -2t56.5 -1q33 0 58.5 3t32.5 12q14 19 14 34q0 23 -25 37q-2 1 -2 4q0 2 2.5 4t5.5 0q9 -4 21 -19t22.5 -31t12.5 -26q2 -4 2 -8v-8q0 -47 -79 -45z" />
    <glyph glyph-name="currency" unicode="&#xa4;" horiz-adv-x="426" 
d="M91 97q0 -1 -0.5 -1h-0.5q-1 0 -2 7.5t-1 17.5q0 17 2.5 34.5t7.5 21.5q8 5 31.5 23.5t52.5 42.5q-28 44 -28 96q0 54 27 94q-28 23 -51 41.5t-32 25.5q-4 2 -6.5 17t-2.5 31q0 14 1.5 24.5t2.5 8.5q29 -28 60 -54.5t62 -53.5q23 20 53 32t64 12t64.5 -12.5t53.5 -33.5
q41 36 75 67.5t46 42.5q2 2 3.5 -8t1.5 -24q0 -16 -2.5 -31.5t-7.5 -17.5q-10 -7 -32.5 -25.5t-51.5 -40.5q28 -44 28 -95q0 -54 -28 -96q29 -24 52.5 -42.5t31.5 -23.5q6 -4 8.5 -22.5t2.5 -35.5q0 -11 -1 -18t-3 -4l-123 109q-23 -21 -53.5 -33t-64.5 -12t-64.5 12
t-54.5 33zM333 208q36 0 65 17.5t46.5 47t17.5 64.5q0 36 -17.5 65t-46.5 46.5t-65 17.5q-35 0 -64.5 -17.5t-47 -46.5t-17.5 -65q0 -35 17.5 -64.5t47 -47t64.5 -17.5z" />
    <glyph glyph-name="yen" unicode="&#xa5;" horiz-adv-x="452" 
d="M117 -39q-31 0 -59 17.5t-42 53.5q-5 13 -6.5 28t-1.5 29t5 14t5 -9q0 -46 23.5 -70.5t59.5 -24.5q42 0 78.5 21.5t67.5 54.5t56 67q-26 0 -59 -0.5t-58 -2.5q-2 0 3 7t12 14t11 6q9 -1 30 -2t42 -1q0 2 1 3l11 34q8 32 16 80t8 97q0 42 -8 80t-29 62h-24q-15 0 -41.5 -2
t-53.5 -9t-45 -23t-16 -43q1 -8 6 -21.5t6 -16.5l-10 -8q-6 11 -15 25.5t-16.5 28.5t-8.5 21q-1 10 1.5 26t15.5 28q15 13 41.5 17t54.5 4q27 0 52 -2t41 -2l46.5 0.5t113.5 0.5l-21 -26q-28 0 -45.5 0.5t-31 1t-32.5 0.5q35 -24 48.5 -68t13.5 -94q0 -43 -7 -84.5
t-15 -70.5q47 65 90 134t96 130q17 19 40.5 43.5t52 43.5t57.5 19q14 0 24 -6t17 -21q5 -12 5 -22q0 -16 -6 -29t-9 -20q-1 -4 -5 -4t-3 4q2 5 2 10v9q0 18 -9 33t-29 15q-28 0 -62 -28t-63 -61q-44 -52 -78 -98.5t-63 -93t-59 -98.5q29 0 59.5 1t43.5 2q2 0 -3 -7
t-12 -13.5t-11 -6.5l-88 4l-20 -35q-21 -37 -48.5 -70.5t-62 -54.5t-80.5 -21z" />
    <glyph glyph-name="brokenbar" unicode="&#xa6;" horiz-adv-x="373" 
d="M205 349q32 77 57.5 140t35.5 88h47q-4 -6 -18.5 -38.5t-35 -82t-44.5 -107.5h-42zM64 0q6 15 20 51t34.5 86t42.5 105l43 2l-98 -244h-42z" />
    <glyph glyph-name="section" unicode="&#xa7;" horiz-adv-x="542" 
d="M191 -164q-35 0 -73.5 10.5t-68 34.5t-39.5 64q-1 5 -1.5 11t-0.5 11q0 31 14 60t34 45h1q2 0 5.5 -4.5t-0.5 -7.5q-10 -10 -14.5 -22.5t-4.5 -26.5q0 -19 6.5 -38.5t16.5 -33.5q25 -35 69.5 -55.5t87.5 -20.5q59 0 91.5 35t32.5 87q0 31 -12 62q-16 42 -42.5 83.5
t-48.5 81.5q-19 36 -19 73q0 41 24 75q26 35 68 54q0 20 5.5 39.5t18.5 37.5q24 32 63.5 51.5t80.5 19.5q28 0 54 -10t46 -33q6 -9 6 -23q0 -20 -8 -31q-8 -13 -19 -34t-13 -29q-2 -1 -9.5 -3.5t-9.5 0.5q4 8 10.5 29t6.5 38q0 11 -0.5 24.5t-12.5 23.5q-12 11 -31 19t-46 8
q-55 0 -84 -32t-29 -70q0 -19 8 -38q15 -36 44 -63.5t59.5 -55t49.5 -65.5q17 -33 17 -67q0 -48 -31 -88t-75 -65q-2 -1 -5 -2t-5 -2q-6 -46 -40.5 -81.5t-82 -55.5t-94.5 -20zM410 14q1 2 6 5q24 16 36.5 41t12.5 55q0 37 -20 77q-13 28 -33.5 52l-41 48t-34.5 51
q-15 29 -18 58q-31 -13 -47.5 -38.5t-16.5 -54.5q0 -19 8 -38q15 -36 42 -68t53.5 -65t41.5 -72q5 -13 7.5 -26t3.5 -25z" />
    <glyph glyph-name="dieresis" unicode="&#xa8;" horiz-adv-x="249" 
d="M229 369q-10 0 -20.5 7.5t-16.5 14.5q-1 2 8 8.5t19.5 12.5t11.5 5q8 -4 16 -8.5t17 -3.5h4q5 0 5 -3t-7 -10q-9 -7 -18.5 -15t-18.5 -8zM113 369q-10 0 -20.5 7.5t-16.5 14.5q-1 2 8 8.5t19.5 12.5t11.5 5q8 -4 16 -8.5t17 -3.5h4q5 0 5 -3t-7 -10q-9 -7 -18.5 -15
t-18.5 -8z" />
    <glyph glyph-name="copyright" unicode="&#xa9;" horiz-adv-x="715" 
d="M311 -4h-15t-16 1q-43 3 -85.5 13t-77.5 31t-56 56t-21 88q0 40 14 88t42.5 96t72 88t102.5 64t134 24h15.5t15.5 -1q122 -9 181 -51.5t63 -122.5q0 -5 0.5 -10.5t0.5 -10.5q0 -72 -28 -135.5t-78.5 -112.5t-118 -77t-145.5 -28zM294 12q71 0 131 30t104 81t68.5 113.5
t24.5 126.5q0 70 -41 114t-143 52q-4 0 -8 0.5t-8 0.5q-51 0 -99.5 -22.5t-89.5 -60.5t-72 -85t-48.5 -96.5t-17.5 -94.5q0 -67 40 -109t136 -49q6 -1 12 -1h11zM301 79q-11 0 -22.5 1t-23.5 4q-42 10 -63 41.5t-21 73.5q0 48 28.5 102.5t85.5 97.5q29 22 71.5 36.5
t79.5 14.5q16 0 30 -2t28 -9t22 -16.5t5 -23.5q-2 -10 -11 -22.5t-14 -26.5q-1 -3 -7 -4.5t-5 1.5q9 15 9 39q0 21 -7 32t-19.5 15t-27.5 4q-13 0 -27 -2.5t-24 -6.5q-17 -7 -34 -16.5t-32 -23.5q-45 -39 -70.5 -92t-25.5 -99q0 -31 13 -54t41 -32q20 -6 39 -6q51 0 99 32
t77 74q1 2 3 2q3 0 5 -6t0 -8q-34 -54 -87 -87t-115 -33z" />
    <glyph glyph-name="ordfeminine" unicode="&#xaa;" horiz-adv-x="294" 
d="M170 300q-10 0 -17 4t-7 15q0 14 7 32t16 35.5t16 28.5q-35 -37 -73 -70q-19 -16 -42 -30t-49 -14q-10 0 -14 6.5t-4 15.5q0 5 1 7q5 39 25 81t49 79t59 60q34 26 75 26h115q5 0 5 -4q0 -8 -9 -8q-10 0 -20 -12.5t-15 -20.5q-7 -11 -22 -37t-30.5 -56.5t-26.5 -56.5
t-11 -38q0 -14 14 -14q15 0 34 14t38.5 34.5t36 41t26.5 32.5q6 -6 -0.5 -16.5t-11.5 -16.5q-20 -26 -46 -53.5t-56.5 -46t-62.5 -18.5zM62 335q12 0 33.5 17.5t46.5 44t47 56t36.5 54t14.5 37.5q0 11 -6.5 15t-16.5 4q-16 0 -34.5 -11.5t-29.5 -22.5q-12 -11 -28.5 -34.5
t-32.5 -51.5t-27 -54t-11 -42q0 -12 8 -12z" />
    <glyph glyph-name="guillemotleft" unicode="&#xab;" horiz-adv-x="355" 
d="M331 115q-2 -11 -11 -11l-6 3q-17 28 -39.5 46.5t-48.5 38.5q-2 4 -1 5q1 5 17.5 24t38.5 42.5t41.5 43l25.5 25.5q8 8 18 8q5 0 5 -4q-1 -3 -15 -19.5t-33 -37.5t-35 -38.5t-21 -22.5q4 -6 14.5 -20.5t22.5 -32t20 -31.5t7 -19zM212 116q0 -12 -11 -12l-6 3
q-16 28 -39 46.5t-49 38.5q-1 2 -1 5q1 5 17.5 24t38.5 42.5t41.5 43l25.5 25.5q10 8 18 8q5 0 5 -4q-1 -3 -15 -19.5t-32.5 -37.5t-35 -38.5t-21.5 -22.5q4 -6 14.5 -20t22 -31t19.5 -31t8 -20z" />
    <glyph glyph-name="logicalnot" unicode="&#xac;" horiz-adv-x="414" 
d="M375 245q-13 -22 -25.5 -51t-17.5 -44l-42 1q5 13 17.5 34t23.5 41q-9 0 -28 0.5t-44 0.5q-33 0 -71 -0.5t-72 -1t-55 -2.5l12 23h59h65.5h69.5t61 0.5t40 1.5z" />
    <glyph glyph-name="uni00AD" unicode="&#xad;" horiz-adv-x="249" 
d="M220 144q-12 1 -25.5 2.5t-33.5 1.5q-23 0 -42.5 -0.5t-42.5 -2.5q-2 0 2 7t10.5 14t9.5 6q11 -2 28.5 -2.5t36.5 -1.5q26 0 46 1t33 2q2 0 -2 -7t-10 -13.5t-10 -6.5z" />
    <glyph glyph-name="registered" unicode="&#xae;" horiz-adv-x="707" 
d="M311 -4h-15t-16 1q-43 3 -85.5 13t-77.5 31t-56 56t-21 88q0 40 14 88t42.5 96t72 88t102.5 64t134 24h15.5t15.5 -1q122 -9 181 -51.5t63 -122.5q0 -5 0.5 -10.5t0.5 -10.5q0 -72 -28 -136t-78.5 -112.5t-118 -76.5t-145.5 -28zM95 171q0 -53 22 -88h1q15 3 26 12t18 22
q30 48 57 99q17 31 33.5 61.5t32.5 61.5q17 29 29 53t16 35q5 12 5 17q0 7 -5 11q-5 0 -14 3t-9 7q0 2 5.5 3.5t19.5 1.5q15 1 33.5 1h28.5q7 0 14.5 0.5t15.5 0.5q29 0 59 -6t43 -28q6 -9 8.5 -20.5t2.5 -23.5q0 -17 -5 -34.5t-15 -29.5q-26 -35 -73 -52.5t-89 -19.5
q9 -20 27.5 -52.5t45.5 -65.5q12 -15 25 -21.5t26 -6.5q27 0 51 21t37 43q31 46 44 100t10 107q-4 62 -46 100.5t-137 45.5q-4 0 -8 0.5t-8 0.5q-51 0 -99.5 -22.5t-89.5 -60.5t-72 -85t-48.5 -96.5t-17.5 -94.5zM295 12q68 0 125.5 28t100.5 74q-17 -13 -36 -22t-38 -9
q-16 0 -32.5 8.5t-31.5 28.5q-34 45 -52 84.5t-25 52.5l7.5 9t12.5 9q23 0 54 9t58.5 31.5t40.5 59.5q5 17 5 29q0 20 -10 35t-29 17q-4 1 -8 1h-9q-10 0 -20.5 -3t-17.5 -11q-26 -34 -49 -81t-43 -85q-5 -9 -18.5 -33.5t-28.5 -54t-24 -54t-6 -32.5q0 -1 0.5 -1.5l0.5 -0.5
q0 -2 -4 -2q-5 0 -10.5 2.5t-13.5 2.5q-5 0 -13 -3q-7 -4 -22.5 -11t-29.5 -12q-5 -2 -8 0q20 -28 56.5 -44t93.5 -21q6 -1 12 -1h12z" />
    <glyph glyph-name="macron" unicode="&#xaf;" horiz-adv-x="250" 
d="M125 379q-4 0 -9.5 7t-4.5 11l1 2q8 2 24.5 3t33.5 1.5t25 0.5q10 0 28 -1t35.5 -3t24.5 -5q1 -1 2 -1t1 -1q-2 -5 -7 -5q-38 0 -77 -4.5t-77 -4.5z" />
    <glyph glyph-name="degree" unicode="&#xb0;" horiz-adv-x="212" 
d="M156 275q-28 0 -46.5 17t-18.5 42q0 32 27.5 56t61.5 24q29 0 47.5 -17t18.5 -42q0 -21 -13 -39.5t-33.5 -29.5t-43.5 -11zM161 304q20 0 36.5 14.5t16.5 32.5q0 14 -11 24.5t-28 10.5q-19 0 -36 -14.5t-17 -32.5q0 -14 11.5 -24.5t27.5 -10.5z" />
    <glyph glyph-name="plusminus" unicode="&#xb1;" horiz-adv-x="371" 
d="M176 112q17 32 36.5 77t34.5 79q-35 0 -78.5 -0.5t-76.5 -3.5q-3 0 3.5 9.5t16.5 18.5t15 8q12 -2 35.5 -3t50 -1h45.5q12 30 25 64t17 50q2 5 16.5 11t27.5 9t12 0q-5 -11 -15.5 -33.5t-23 -49t-23.5 -51.5q29 0 61.5 0.5t59.5 1.5t39 1q3 0 -3.5 -9t-16 -18t-15.5 -9
q-10 1 -34 2t-52 2t-51 1l-1 -4q-8 -19 -19 -45t-19.5 -50t-11.5 -36q-1 -5 -15.5 -11.5t-28 -9.5t-11.5 0zM331 8q-12 1 -37.5 2t-53.5 2t-49 1q-35 0 -82 -0.5t-82 -3.5q-3 0 3.5 8.5t16 17t14.5 7.5q12 -2 36 -3t50.5 -1t45.5 -1q27 0 61.5 1t65.5 2t45 1q3 0 -4 -8.5
t-16 -16.5t-14 -8z" />
    <glyph glyph-name="two.superior" unicode="&#xb2;" horiz-adv-x="220" 
d="M-6 286q15 14 49 43.5t69 63.5l8 8q18 17 41 39.5t42 46.5t24 43q3 8 3 15q0 14 -11 23.5t-31 9.5q-25 0 -43 -10q-7 -4 -14.5 -14.5t-10.5 -19.5l-3 -15t-1 -13l-24 -12q3 9 7 26t7.5 32.5t3.5 19.5q0 7 5 11.5t9 5.5q7 2 23.5 5t30.5 3l14 1q35 2 52 -7q15 -6 21.5 -18
t6.5 -26t-5 -27q-4 -14 -12.5 -27t-19.5 -24q-25 -27 -64.5 -58.5t-74.5 -57.5q-17 -12 -28 -22q-10 -7 -9.5 -8.5t2.5 -1.5q11 0 23 -1t25 -1q21 0 39.5 2.5t28.5 7.5t23.5 21t17.5 25l14 -5q-1 -1 -12 -18t-18 -31q-7 -15 -16 -23t-26 -8q-10 0 -28 1t-34 1h-11t-10 -1
l-23 -1.5t-60 -3.5z" />
    <glyph glyph-name="three.superior" unicode="&#xb3;" horiz-adv-x="220" 
d="M96 284q-16 0 -36 2t-31 9q-4 2 -7 6.5t0 10.5t9 25.5l10 32.5l17 7q-1 -7 -3.5 -18.5t-2.5 -22.5q0 -15 7 -22q12 -10 35 -10q43 0 68 25.5t34 55.5q3 14 3 23q0 19 -14.5 27t-36 10.5t-43.5 2.5l15 18l13 2q15 4 34.5 10.5t37 18.5t23.5 32q3 8 3 15q0 14 -11 24
t-32 10q-25 0 -42 -10q-7 -4 -14.5 -14.5t-10.5 -19.5q-1 -5 -3.5 -15t-1.5 -13l-24 -12q3 9 7 26t7.5 32.5t3.5 19.5q0 7 5.5 11.5t9.5 5.5q6 2 23 5t30 3l15 1q34 2 51 -7q14 -5 19.5 -16.5t5.5 -24.5q0 -27 -17 -46q-22 -27 -66 -42q-1 -1 2 -1q28 -2 40 -18.5t12 -38.5
q0 -34 -22 -67q-16 -22 -48.5 -37.5t-73.5 -15.5z" />
    <glyph glyph-name="acute" unicode="&#xb4;" horiz-adv-x="129" 
d="M27 335q-1 0 0 3.5l1 3.5q19 14 39.5 31t37.5 32q4 4 15.5 13t23 17.5t15.5 8.5q3 0 3 -9q0 -6 -1 -13t-3 -9q-3 -4 -21 -16.5t-41.5 -26t-43 -24t-25.5 -11.5z" />
    <glyph glyph-name="uni03BC" unicode="&#xb5;" horiz-adv-x="251" 
d="M-75 -387q-37 0 -63 24t-26 57v7.5t1 7.5l1 2q6 30 26.5 68.5t48.5 79.5t55 78.5t46 64.5q33 49 63.5 100t40.5 106q-4 -8 -16 -24.5t-27.5 -35.5t-29.5 -35t-22 -24q-1 0 -1.5 -0.5t-1.5 -0.5q-3 0 -3 4v0.5t1 0.5q3 6 16.5 21t18.5 22q20 25 37 50t30 53q3 7 9 14t15 7
q7 0 9 -5.5t2 -13.5q0 -10 -2 -18q-5 -31 -21.5 -65.5t-36 -68t-34.5 -64.5q41 26 71.5 53t61.5 61l7 7q3 8 8.5 22.5t12.5 28.5t13 20q6 5 17 5q4 0 10.5 -1.5t5.5 -6.5q-2 -13 -8 -22.5t-16 -19.5q-13 -28 -22.5 -56t-14.5 -57q-1 -4 -1.5 -7.5t-0.5 -7.5q0 -9 4 -15.5
t17 -6.5q11 0 22 6.5t19 13t9 6.5q2 0 2 -4q0 -1 -0.5 -1t-0.5 -1q-12 -13 -32 -25t-38 -12t-23.5 10.5t-5.5 23.5q0 6 0.5 12t1.5 11q3 17 7.5 33.5t8.5 32.5q-30 -40 -69 -69.5t-82 -55.5q-29 -45 -63.5 -99t-61.5 -109t-36 -104q-1 -6 -1.5 -12t-0.5 -12q0 -17 8 -31
t31 -14q18 0 42 8.5t40 17.5q-10 -14 -35.5 -24.5t-42.5 -10.5z" />
    <glyph glyph-name="paragraph" unicode="&#xb6;" horiz-adv-x="494" 
d="M-158 -274q-4 0 -19 2.5t-15 10.5q-1 6 9.5 7t12.5 1q51 0 99.5 30.5t92 79t81 104.5t66 108t45.5 89q-38 3 -74.5 17.5t-59.5 42t-23 70.5q0 25 8.5 48t21.5 42q37 55 97 86.5t130.5 45.5t136.5 14q19 0 37.5 1t35.5 5q23 26 55 48t69 22q8 0 17.5 -1.5t9.5 -11.5v-2
q0 -8 -5.5 -11t-12.5 -3q-26 0 -49.5 -16t-42 -38t-30.5 -41q-18 -28 -39 -72t-40 -88.5t-33 -75.5q-20 -45 -50 -106t-69 -124t-86.5 -117t-103 -87t-117.5 -31h-8q-32 -23 -69 -36t-78 -13zM8 -211q39 3 76 27t70.5 60.5t62 78t50.5 81.5t36 70q48 98 95 194.5t97 191.5
l-28 -1q-36 -25 -69 -73.5t-65 -112t-65.5 -134t-72 -140.5t-84.5 -132.5t-103 -109.5z" />
    <glyph glyph-name="periodcentered" unicode="&#xb7;" horiz-adv-x="590" 
d="M304 175q-54 0 -89 32t-35 79q0 41 24 76t63 56t83 21q55 0 90 -32.5t35 -79.5q0 -41 -24.5 -75.5t-63.5 -55.5t-83 -21z" />
    <glyph glyph-name="cedilla" unicode="&#xb8;" horiz-adv-x="190" 
d="M-17 -215q-6 0 -6 6q0 4 3.5 6t5.5 2q5 1 19.5 1t31.5 4t31 15t18 33q2 12 -6.5 25.5t-17.5 28t-9 29.5q0 25 19.5 45.5t47.5 20.5h20q-21 -5 -36.5 -20t-15.5 -33q0 -15 10 -28t19 -26.5t6 -32.5q-5 -27 -29.5 -43.5t-55 -24.5t-55.5 -8z" />
    <glyph glyph-name="one.superior" unicode="&#xb9;" horiz-adv-x="170" 
d="M87 294l-20.5 -1t-67.5 -5l12 17q2 0 4 -0.5t5 -0.5q12 0 28.5 4.5t22.5 16.5q4 7 11 28t15 43.5t11 34.5v-1l24 72q10 33 10 41q0 7 -5 7q-4 0 -11.5 -5t-15.5 -11l-12 -10l-16 -11l1 12q2 5 3 8t2 7l21 12l32 20q9 6 24.5 15.5t27.5 16.5q7 4 11 4t4 -4q0 -5 -4 -12
q-12 -25 -23 -55t-25 -76l-10 -34q-9 -26 -18.5 -58t-11.5 -46q-1 -9 9.5 -13t23.5 -4.5t18 -0.5l-14 -17q-7 2 -29.5 3.5t-36.5 2.5z" />
    <glyph glyph-name="ordmasculine" unicode="&#xba;" horiz-adv-x="265" 
d="M50 305q-16 0 -28.5 6.5t-12.5 28.5q0 35 18 70.5t37 62.5q17 23 38.5 43.5t46.5 35.5q16 10 43.5 21.5t46.5 11.5q16 0 28 -8.5t12 -30.5q0 -34 -17.5 -69.5t-36.5 -62.5q-9 -12 -18 -22.5t-20 -21.5q37 0 68 21.5t54 52.5l2 2q3 0 3 -6q0 -7 -4 -13q-20 -28 -50 -49.5
t-68 -21.5h-8t-8 1q-56 -52 -126 -52zM76 322q14 0 30.5 10t25.5 19q17 17 31 36.5t26 39.5q14 24 28 57t14 62q0 23 -16 23q-13 0 -31.5 -11t-27.5 -20q-34 -35 -57 -76q-13 -23 -28 -54t-15 -57q0 -4 0.5 -7.5t1.5 -7.5q4 -14 18 -14z" />
    <glyph glyph-name="guillemotright" unicode="&#xbb;" horiz-adv-x="355" 
d="M227 99q-7 0 -5 5q0 3 14 19.5t33 37t35.5 38t21.5 23.5q-4 6 -14.5 20.5t-22.5 31.5t-20.5 31.5t-7.5 19.5q2 10 11 10l6 -3q17 -28 40 -46.5t48 -38.5q2 -2 2 -5q-1 -5 -17.5 -24t-39 -42t-41.5 -43t-26 -26q-4 -3 -8 -5.5t-9 -2.5zM95 99q-7 0 -5 5q0 3 14 19.5t33 37
t35.5 38t21.5 23.5q-4 6 -14.5 20.5t-22.5 31.5t-20.5 31.5t-7.5 19.5q2 10 11 10l6 -3q17 -28 40 -46.5t48 -38.5q2 -2 2 -5q-1 -5 -17.5 -24t-39 -42t-41.5 -43t-26 -26q-4 -3 -8 -5.5t-9 -2.5z" />
    <glyph glyph-name="onequarter" unicode="&#xbc;" horiz-adv-x="985" 
d="M262 -32q-9 0 -15 1.5t-4 5.5q44 62 99 134.5t113 147.5t113.5 143.5t101.5 123.5t75 86q2 2 11 2.5t20 0.5q14 0 27 -0.5t11 -2.5q-22 -23 -63.5 -70.5t-93.5 -109.5t-107.5 -129t-107.5 -130.5t-93 -115t-63 -81.5q-2 -3 -9 -4.5t-15 -1.5z" />
    <glyph glyph-name="onehalf" unicode="&#xbd;" horiz-adv-x="657" 
d="M-17 -32q-7 0 -12 1.5t-2 5.5q57 62 126.5 134.5t143 147.5t143 143.5t126 123.5t92.5 86q2 2 8.5 2.5t13.5 0.5q10 0 18.5 -0.5t6.5 -2.5q-23 -20 -63.5 -58t-91.5 -88t-108 -106t-114 -113t-108.5 -109.5t-92 -94t-64.5 -67.5q-3 -3 -9.5 -4.5t-12.5 -1.5zM126 294
l-20.5 -1t-67.5 -5l12 17q2 0 4 -0.5t5 -0.5q12 0 28.5 4.5t22.5 16.5q4 7 11.5 28t15 43.5t10.5 34.5v-1l24 72q10 33 10 41q0 7 -5 7q-4 0 -11.5 -5t-15.5 -11l-12 -10l-16 -11l1 12q2 5 3 8t2 7l21 12l32 20q9 6 24.5 15.5t27.5 16.5q7 4 11 4t4 -4q0 -5 -4 -12
q-12 -25 -23 -55t-25 -76l-10 -34q-9 -26 -18.5 -58t-11.5 -46q-1 -9 9.5 -13t23.5 -4.5t18 -0.5l-14 -17q-7 2 -29.5 3.5t-36.5 2.5zM327 -4q15 14 49 43.5t69 63.5l8 8q18 17 41 39.5t42 46.5t24 43q3 8 3 15q0 14 -11 23.5t-31 9.5q-25 0 -43 -10q-7 -4 -14.5 -14.5
t-10.5 -19.5l-3 -15t-1 -13l-24 -12q3 9 7 26t7.5 32.5t3.5 19.5q0 7 5 11.5t9 5.5q7 2 23.5 5t30.5 3l14 1q35 2 52 -7q15 -6 21.5 -18t6.5 -26t-5 -27q-4 -14 -12.5 -27t-19.5 -24q-25 -27 -64.5 -58.5t-74.5 -57.5q-17 -12 -28 -22q-10 -7 -9.5 -8.5t2.5 -1.5q11 0 23 -1
t25 -1q21 0 39.5 2.5t28.5 7.5t23.5 21t17.5 25l14 -5q-1 -1 -12 -18t-18 -31q-7 -15 -16 -23t-26 -8q-10 0 -28 1t-34 1h-11t-10 -1l-23 -1.5t-60 -3.5z" />
    <glyph glyph-name="threequarters" unicode="&#xbe;" horiz-adv-x="698" 
d="M31 -32q-7 0 -12 1.5t-2 5.5q57 62 126.5 134.5t143 147.5t143 143.5t126 123.5t92.5 86q2 2 8.5 2.5t13.5 0.5q10 0 18.5 -0.5t6.5 -2.5q-23 -20 -63.5 -58t-91.5 -88t-108 -106t-114 -113t-108.5 -109.5t-92 -94t-64.5 -67.5q-3 -3 -9.5 -4.5t-12.5 -1.5zM96 284
q-16 0 -36 2t-31 9q-4 2 -7 6.5t0 10.5t9 25.5l10 32.5l17 7q-1 -7 -3.5 -18.5t-2.5 -22.5q0 -15 7 -22q12 -10 35 -10q43 0 68 25.5t34 55.5q3 14 3 23q0 19 -14.5 27t-36 10.5t-43.5 2.5l15 18l13 2q15 4 34.5 10.5t37 18.5t23.5 32q3 8 3 15q0 14 -11 24t-32 10
q-25 0 -42 -10q-7 -4 -14.5 -14.5t-10.5 -19.5q-1 -5 -3.5 -15t-1.5 -13l-24 -12q3 9 7 26t7.5 32.5t3.5 19.5q0 7 5.5 11.5t9.5 5.5q6 2 23 5t30 3l15 1q34 2 51 -7q14 -5 19.5 -16.5t5.5 -24.5q0 -27 -17 -46q-22 -27 -66 -42q-1 -1 2 -1q28 -2 40 -18.5t12 -38.5
q0 -34 -22 -67q-16 -22 -48.5 -37.5t-73.5 -15.5zM493 4l-20 -1t-67 -5l13 17q2 0 4 -0.5t4 -0.5q11 0 27.5 4.5t23.5 16.5q3 5 9 20t12 33h-34l-27.5 -0.5t-65.5 -2.5q-13 0 -13 4t8 10q8 5 20 16.5t24 24.5l15 17l80 84q8 8 15 15.5t12 13.5q18 23 25 25q13 4 22 9
q10 5 18 8t12 3t4 -3q0 -2 -3 -10q-11 -22 -22.5 -53t-25.5 -78l-17 -51q10 1 17 2t9 3q12 6 27.5 22t19.5 24l10 -3l2 -6q-1 -1 -12.5 -17t-16.5 -27q-8 -16 -18 -24t-30 -7h-18q-4 -17 -7.5 -31.5t-5.5 -22.5q-1 -9 10 -13t24 -4.5t18 -0.5l-16 -17q-6 2 -28.5 3.5z
M482 117h13.5t11.5 1l3 5q2 5 4 12.5t1 4.5l23 72q6 17 10 31t3 19q-10 -8 -31 -29.5t-43.5 -46.5t-39.5 -43l-16 -18q-5 -5 1 -6q11 -1 27.5 -1.5t32.5 -0.5z" />
    <glyph glyph-name="questiondown" unicode="&#xbf;" horiz-adv-x="446" 
d="M350 414q-7 5 -15.5 9.5t-17.5 2.5h-4q-5 0 -5 3t7 10q9 8 18.5 15.5t17.5 7.5q11 0 21 -7t16 -15q2 -1 -7 -7.5t-19 -12.5t-12 -6zM119 -115q-52 0 -81.5 19t-29.5 62q0 13 3 26q7 40 30.5 65.5t55.5 43t66.5 33.5t65.5 36t50 50q14 22 21.5 41t7.5 35q0 19 -10 30
l11 16q25 -28 25 -66q0 -26 -17.5 -50.5t-37.5 -41.5l-166 -132q-20 -16 -30 -36t-10 -40q0 -19 9.5 -35t28.5 -24q15 -7 39 -7q21 0 42.5 6t37.5 17q10 7 21 23t20.5 35.5t13.5 35.5q0 9 11 14.5t9 -5.5q-3 -14 -7.5 -34.5t-7.5 -39t-3 -28.5t-8 -17.5t-14 -10.5
q-12 -5 -41 -10.5t-52 -7.5l-28 -2q-7 -1 -13 -1h-12z" />
    <glyph glyph-name="Agrave" unicode="&#xc0;" horiz-adv-x="768" 
d="M87 -25q-31 0 -50.5 18t-15.5 54q1 13 6.5 27.5t12.5 28.5q6 14 12 14q5 0 1 -8q-13 -27 -13 -48q0 -22 15.5 -33t40.5 -11q49 0 108 31.5t122 81t121 103.5q-39 2 -73 4t-60 2q-22 0 -53 -4t-48 -21q-7 -7 -12.5 -20.5t-5.5 -27.5q0 -4 0.5 -7.5t1.5 -7.5
q-4 2 -14.5 3.5t-13.5 12.5q-1 3 -1 10q0 16 12 26.5t29 18.5t31 14q33 14 68 23t71 9q41 0 102 -3q47 46 87 87t65 68q35 37 74.5 63.5t80.5 37.5h-55q-35 0 -76 -3t-77 -13t-60 -30q-15 -13 -22.5 -29.5t-7.5 -30.5q0 -19 11 -26q1 0 1 -0.5v-0.5q0 -3 -7 -6.5t-10 -1.5
q-10 7 -17.5 28.5t-5.5 34.5q5 31 27.5 50.5t56 30.5t71 15t72 5t58.5 1h109q2 0 1 -1q25 11 52.5 22t47.5 11q5 0 10.5 -3t5.5 -6q0 -5 -20 -5q-10 0 -20.5 -3.5t-27.5 -21.5q-14 -14 -35 -45t-46 -72.5t-50 -88t-48 -91.5t-40 -83q-2 -6 -11 -27.5t-17 -47t-8 -45.5
q0 -27 19 -27q9 0 18 4q13 5 27 15t27 23q26 25 44 48.5t22 28.5q3 5 7 5t4 -5q0 -3 -3 -8q-7 -10 -26 -34.5t-44.5 -49.5t-54.5 -38q-9 -4 -19 -6.5t-20 -2.5q-20 0 -36.5 14t-16.5 46q0 29 11.5 62.5t21.5 54.5q20 43 47.5 96t57 106t54.5 96t41 64q-16 0 -43 -12.5
t-57.5 -33t-56.5 -47.5q-31 -32 -71.5 -78t-87.5 -96q23 -1 46 -1.5t46 -0.5q16 0 35.5 3.5t36.5 11.5l-5.5 -10.5t-18 -21t-33.5 -12.5q-19 -1 -38 -1.5t-38 -0.5h-31.5t-30.5 1q-46 -48 -96 -93.5t-101 -82.5t-101.5 -58.5t-98.5 -21.5zM903 647q-19 6 -45.5 15.5t-51 19
t-36.5 16.5q-3 2 -6.5 8t-3.5 13q0 9 5 9t17.5 -6t30.5 -16q27 -14 48.5 -25.5t44.5 -23.5q1 -2 0 -5.5t-3 -4.5z" />
    <glyph glyph-name="Aacute" unicode="&#xc1;" horiz-adv-x="768" 
d="M87 -25q-31 0 -50.5 18t-15.5 54q1 13 6.5 27.5t12.5 28.5q6 14 12 14q5 0 1 -8q-13 -27 -13 -48q0 -22 15.5 -33t40.5 -11q49 0 108 31.5t122 81t121 103.5q-39 2 -73 4t-60 2q-22 0 -53 -4t-48 -21q-7 -7 -12.5 -20.5t-5.5 -27.5q0 -4 0.5 -7.5t1.5 -7.5
q-4 2 -14.5 3.5t-13.5 12.5q-1 3 -1 10q0 16 12 26.5t29 18.5t31 14q33 14 68 23t71 9q41 0 102 -3q47 46 87 87t65 68q35 37 74.5 63.5t80.5 37.5h-55q-35 0 -76 -3t-77 -13t-60 -30q-15 -13 -22.5 -29.5t-7.5 -30.5q0 -19 11 -26q1 0 1 -0.5v-0.5q0 -3 -7 -6.5t-10 -1.5
q-10 7 -17.5 28.5t-5.5 34.5q5 31 27.5 50.5t56 30.5t71 15t72 5t58.5 1h109q2 0 1 -1q25 11 52.5 22t47.5 11q5 0 10.5 -3t5.5 -6q0 -5 -20 -5q-10 0 -20.5 -3.5t-27.5 -21.5q-14 -14 -35 -45t-46 -72.5t-50 -88t-48 -91.5t-40 -83q-2 -6 -11 -27.5t-17 -47t-8 -45.5
q0 -27 19 -27q9 0 18 4q13 5 27 15t27 23q26 25 44 48.5t22 28.5q3 5 7 5t4 -5q0 -3 -3 -8q-7 -10 -26 -34.5t-44.5 -49.5t-54.5 -38q-9 -4 -19 -6.5t-20 -2.5q-20 0 -36.5 14t-16.5 46q0 29 11.5 62.5t21.5 54.5q20 43 47.5 96t57 106t54.5 96t41 64q-16 0 -43 -12.5
t-57.5 -33t-56.5 -47.5q-31 -32 -71.5 -78t-87.5 -96q23 -1 46 -1.5t46 -0.5q16 0 35.5 3.5t36.5 11.5l-5.5 -10.5t-18 -21t-33.5 -12.5q-19 -1 -38 -1.5t-38 -0.5h-31.5t-30.5 1q-46 -48 -96 -93.5t-101 -82.5t-101.5 -58.5t-98.5 -21.5zM797 647q-6 2 -4 9
q23 12 46.5 24.5t55.5 29.5q11 6 24 13t17 6q2 -1 4 -3.5t1 -6.5q-2 -17 -10 -21q-12 -7 -36.5 -16.5t-51.5 -19t-46 -15.5z" />
    <glyph glyph-name="Acircumflex" unicode="&#xc2;" horiz-adv-x="768" 
d="M87 -25q-31 0 -50.5 18t-15.5 54q1 13 6.5 27.5t12.5 28.5q6 14 12 14q5 0 1 -8q-13 -27 -13 -48q0 -22 15.5 -33t40.5 -11q49 0 108 31.5t122 81t121 103.5q-39 2 -73 4t-60 2q-22 0 -53 -4t-48 -21q-7 -7 -12.5 -20.5t-5.5 -27.5q0 -4 0.5 -7.5t1.5 -7.5
q-4 2 -14.5 3.5t-13.5 12.5q-1 3 -1 10q0 16 12 26.5t29 18.5t31 14q33 14 68 23t71 9q41 0 102 -3q47 46 87 87t65 68q35 37 74.5 63.5t80.5 37.5h-55q-35 0 -76 -3t-77 -13t-60 -30q-15 -13 -22.5 -29.5t-7.5 -30.5q0 -19 11 -26q1 0 1 -0.5v-0.5q0 -3 -7 -6.5t-10 -1.5
q-10 7 -17.5 28.5t-5.5 34.5q5 31 27.5 50.5t56 30.5t71 15t72 5t58.5 1h109q2 0 1 -1q25 11 52.5 22t47.5 11q5 0 10.5 -3t5.5 -6q0 -5 -20 -5q-10 0 -20.5 -3.5t-27.5 -21.5q-14 -14 -35 -45t-46 -72.5t-50 -88t-48 -91.5t-40 -83q-2 -6 -11 -27.5t-17 -47t-8 -45.5
q0 -27 19 -27q9 0 18 4q13 5 27 15t27 23q26 25 44 48.5t22 28.5q3 5 7 5t4 -5q0 -3 -3 -8q-7 -10 -26 -34.5t-44.5 -49.5t-54.5 -38q-9 -4 -19 -6.5t-20 -2.5q-20 0 -36.5 14t-16.5 46q0 29 11.5 62.5t21.5 54.5q20 43 47.5 96t57 106t54.5 96t41 64q-16 0 -43 -12.5
t-57.5 -33t-56.5 -47.5q-31 -32 -71.5 -78t-87.5 -96q23 -1 46 -1.5t46 -0.5q16 0 35.5 3.5t36.5 11.5l-5.5 -10.5t-18 -21t-33.5 -12.5q-19 -1 -38 -1.5t-38 -0.5h-31.5t-30.5 1q-46 -48 -96 -93.5t-101 -82.5t-101.5 -58.5t-98.5 -21.5zM940 643q-10 -5 -30 12
q-11 10 -26.5 26t-20.5 21q-5 8 -12 3q-5 -4 -21.5 -15.5t-33.5 -22.5t-26 -16q-12 -6 -20 -2q29 20 58.5 41t54.5 43h12q10 -16 28.5 -36t39.5 -34q4 -2 8 -5t10 -3v-3q-3 -1 -11 -4.5t-10 -4.5z" />
    <glyph glyph-name="Atilde" unicode="&#xc3;" horiz-adv-x="768" 
d="M87 -25q-31 0 -50.5 18t-15.5 54q1 13 6.5 27.5t12.5 28.5q6 14 12 14q5 0 1 -8q-13 -27 -13 -48q0 -22 15.5 -33t40.5 -11q49 0 108 31.5t122 81t121 103.5q-39 2 -73 4t-60 2q-22 0 -53 -4t-48 -21q-7 -7 -12.5 -20.5t-5.5 -27.5q0 -4 0.5 -7.5t1.5 -7.5
q-4 2 -14.5 3.5t-13.5 12.5q-1 3 -1 10q0 16 12 26.5t29 18.5t31 14q33 14 68 23t71 9q41 0 102 -3q47 46 87 87t65 68q35 37 74.5 63.5t80.5 37.5h-55q-35 0 -76 -3t-77 -13t-60 -30q-15 -13 -22.5 -29.5t-7.5 -30.5q0 -19 11 -26q1 0 1 -0.5v-0.5q0 -3 -7 -6.5t-10 -1.5
q-10 7 -17.5 28.5t-5.5 34.5q5 31 27.5 50.5t56 30.5t71 15t72 5t58.5 1h109q2 0 1 -1q25 11 52.5 22t47.5 11q5 0 10.5 -3t5.5 -6q0 -5 -20 -5q-10 0 -20.5 -3.5t-27.5 -21.5q-14 -14 -35 -45t-46 -72.5t-50 -88t-48 -91.5t-40 -83q-2 -6 -11 -27.5t-17 -47t-8 -45.5
q0 -27 19 -27q9 0 18 4q13 5 27 15t27 23q26 25 44 48.5t22 28.5q3 5 7 5t4 -5q0 -3 -3 -8q-7 -10 -26 -34.5t-44.5 -49.5t-54.5 -38q-9 -4 -19 -6.5t-20 -2.5q-20 0 -36.5 14t-16.5 46q0 29 11.5 62.5t21.5 54.5q20 43 47.5 96t57 106t54.5 96t41 64q-16 0 -43 -12.5
t-57.5 -33t-56.5 -47.5q-31 -32 -71.5 -78t-87.5 -96q23 -1 46 -1.5t46 -0.5q16 0 35.5 3.5t36.5 11.5l-5.5 -10.5t-18 -21t-33.5 -12.5q-19 -1 -38 -1.5t-38 -0.5h-31.5t-30.5 1q-46 -48 -96 -93.5t-101 -82.5t-101.5 -58.5t-98.5 -21.5zM885 641q-16 0 -42 13
q-26 14 -39 14q-15 0 -28 -13t-17 -13q-1 1 -1 2q0 14 35 41q13 10 30 10q12 0 39 -11q24 -10 39 -10q19 0 34 21q5 0 5 -4q0 -15 -33 -42q-10 -8 -22 -8z" />
    <glyph glyph-name="Adieresis" unicode="&#xc4;" horiz-adv-x="768" 
d="M87 -25q-31 0 -50.5 18t-15.5 54q1 13 6.5 27.5t12.5 28.5q6 14 12 14q5 0 1 -8q-13 -27 -13 -48q0 -22 15.5 -33t40.5 -11q49 0 108 31.5t122 81t121 103.5q-39 2 -73 4t-60 2q-22 0 -53 -4t-48 -21q-7 -7 -12.5 -20.5t-5.5 -27.5q0 -4 0.5 -7.5t1.5 -7.5
q-4 2 -14.5 3.5t-13.5 12.5q-1 3 -1 10q0 16 12 26.5t29 18.5t31 14q33 14 68 23t71 9q41 0 102 -3q47 46 87 87t65 68q35 37 74.5 63.5t80.5 37.5h-55q-35 0 -76 -3t-77 -13t-60 -30q-15 -13 -22.5 -29.5t-7.5 -30.5q0 -19 11 -26q1 0 1 -0.5v-0.5q0 -3 -7 -6.5t-10 -1.5
q-10 7 -17.5 28.5t-5.5 34.5q5 31 27.5 50.5t56 30.5t71 15t72 5t58.5 1h109q2 0 1 -1q25 11 52.5 22t47.5 11q5 0 10.5 -3t5.5 -6q0 -5 -20 -5q-10 0 -20.5 -3.5t-27.5 -21.5q-14 -14 -35 -45t-46 -72.5t-50 -88t-48 -91.5t-40 -83q-2 -6 -11 -27.5t-17 -47t-8 -45.5
q0 -27 19 -27q9 0 18 4q13 5 27 15t27 23q26 25 44 48.5t22 28.5q3 5 7 5t4 -5q0 -3 -3 -8q-7 -10 -26 -34.5t-44.5 -49.5t-54.5 -38q-9 -4 -19 -6.5t-20 -2.5q-20 0 -36.5 14t-16.5 46q0 29 11.5 62.5t21.5 54.5q20 43 47.5 96t57 106t54.5 96t41 64q-16 0 -43 -12.5
t-57.5 -33t-56.5 -47.5q-31 -32 -71.5 -78t-87.5 -96q23 -1 46 -1.5t46 -0.5q16 0 35.5 3.5t36.5 11.5l-5.5 -10.5t-18 -21t-33.5 -12.5q-19 -1 -38 -1.5t-38 -0.5h-31.5t-30.5 1q-46 -48 -96 -93.5t-101 -82.5t-101.5 -58.5t-98.5 -21.5zM788 651q-20 0 -37 22q0 3 12.5 11
t16.5 11q8 4 10 4q5 -3 14.5 -6t18 -5.5t8.5 -3.5q-1 -4 -6 -10q-28 -23 -37 -23zM904 651q-20 0 -37 22q0 3 12.5 11t16.5 11q8 4 10 4q5 -3 14.5 -6t18 -5.5t8.5 -3.5q-1 -4 -6 -10q-28 -23 -37 -23z" />
    <glyph glyph-name="Aring" unicode="&#xc5;" horiz-adv-x="768" 
d="M87 -25q-31 0 -50.5 18t-15.5 54q1 13 6.5 27.5t12.5 28.5q6 14 12 14q5 0 1 -8q-13 -27 -13 -48q0 -22 15.5 -33t40.5 -11q49 0 108 31.5t122 81t121 103.5q-39 2 -73 4t-60 2q-22 0 -53 -4t-48 -21q-7 -7 -12.5 -20.5t-5.5 -27.5q0 -4 0.5 -7.5t1.5 -7.5
q-4 2 -14.5 3.5t-13.5 12.5q-1 3 -1 10q0 16 12 26.5t29 18.5t31 14q33 14 68 23t71 9q41 0 102 -3q47 46 87 87t65 68q35 37 74.5 63.5t80.5 37.5h-55q-35 0 -76 -3t-77 -13t-60 -30q-15 -13 -22.5 -29.5t-7.5 -30.5q0 -19 11 -26q1 0 1 -0.5v-0.5q0 -3 -7 -6.5t-10 -1.5
q-10 7 -17.5 28.5t-5.5 34.5q5 31 27.5 50.5t56 30.5t71 15t72 5t58.5 1h109q2 0 1 -1q25 11 52.5 22t47.5 11q5 0 10.5 -3t5.5 -6q0 -5 -20 -5q-10 0 -20.5 -3.5t-27.5 -21.5q-14 -14 -35 -45t-46 -72.5t-50 -88t-48 -91.5t-40 -83q-2 -6 -11 -27.5t-17 -47t-8 -45.5
q0 -27 19 -27q9 0 18 4q13 5 27 15t27 23q26 25 44 48.5t22 28.5q3 5 7 5t4 -5q0 -3 -3 -8q-7 -10 -26 -34.5t-44.5 -49.5t-54.5 -38q-9 -4 -19 -6.5t-20 -2.5q-20 0 -36.5 14t-16.5 46q0 29 11.5 62.5t21.5 54.5q20 43 47.5 96t57 106t54.5 96t41 64q-16 0 -43 -12.5
t-57.5 -33t-56.5 -47.5q-31 -32 -71.5 -78t-87.5 -96q23 -1 46 -1.5t46 -0.5q16 0 35.5 3.5t36.5 11.5l-5.5 -10.5t-18 -21t-33.5 -12.5q-19 -1 -38 -1.5t-38 -0.5h-31.5t-30.5 1q-46 -48 -96 -93.5t-101 -82.5t-101.5 -58.5t-98.5 -21.5zM846 637q-30 0 -30 25q0 7 6 20.5
t15.5 26t21.5 15.5q8 11 21 18.5t26 7.5q16 0 23.5 -9.5t7.5 -22.5q0 -20 -14 -38.5t-34.5 -30.5t-42.5 -12zM858 652q21 0 38 19.5t20 36.5q0 2 0.5 4t0.5 4q0 8 -3.5 13.5t-11.5 5.5q-7 0 -13.5 -3t-12.5 -7l8 -4q-9 -16 -21 -25t-16 -29v-3q0 -12 11 -12z" />
    <glyph glyph-name="AE" unicode="&#xc6;" horiz-adv-x="1079" 
d="M87 -25q-31 0 -50.5 18t-15.5 54q1 13 6.5 27.5t12.5 28.5q6 14 12 14q5 0 1 -8q-13 -27 -13 -48q0 -22 15.5 -33t40.5 -11q49 0 108 31.5t122 81t121 103.5q-39 2 -73 4t-60 2q-22 0 -53 -4t-48 -21q-7 -7 -12.5 -20.5t-5.5 -27.5q0 -4 0.5 -7.5t1.5 -7.5
q-4 2 -14.5 3.5t-13.5 12.5q-1 3 -1 10q0 16 12 26.5t29 18.5t31 14q33 14 68 23t71 9q41 0 102 -3q47 46 87 87t65 68q35 37 74.5 63.5t80.5 37.5h-55q-35 0 -76 -3t-77 -13t-60 -30q-15 -13 -22.5 -29.5t-7.5 -30.5q0 -19 11 -26q1 0 1 -0.5v-0.5q0 -3 -7 -6.5t-10 -1.5
q-10 7 -17.5 28.5t-5.5 34.5q5 31 27.5 50.5t56 30.5t71 15t72 5t58.5 1h113q24 11 51 21.5t46 10.5q8 0 14.5 -5.5t-3.5 -7.5q-14 -2 -24.5 -1.5t-30.5 -16.5q27 0 47 1t42 1q26 0 72 -3q25 -1 34.5 -10t9.5 -22q0 -16 -10.5 -36.5t-19.5 -37.5q-4 -8 -13 -11.5t-7 5.5
q5 20 5 40q0 18 -6.5 32.5t-24.5 20.5q-17 5 -53 5q-13 0 -26.5 -0.5t-27.5 -1.5q-40 -3 -54 -21q-33 -46 -63.5 -99.5t-58.5 -101.5q-1 -2 -1 -5q0 -6 9 -6q35 0 75.5 -1t71.5 0q7 1 21.5 2t30 4t23.5 7q5 3 6 3q6 0 0.5 -11.5t-18 -23t-28.5 -11.5q-49 0 -82.5 2t-74.5 2
h-21t-24 -1q-10 -1 -14 -8q-10 -18 -17.5 -33t-18.5 -35q-8 -15 -19.5 -38.5t-20.5 -48t-9 -42.5q0 -31 29 -42.5t71 -12.5q58 0 114.5 11.5t106 39t86.5 74.5q2 2 3 2q3 0 4 -5.5t-1 -8.5q-31 -38 -60 -73.5t-58 -44.5q-21 -6 -68 -10.5t-104 -4.5q-32 0 -65 1.5t-65 5.5
q-71 6 -71 46q0 20 16 48l48 86q21 43 48 95.5t55.5 104t53.5 93t40 62.5q-16 0 -43 -12.5t-57.5 -33t-56.5 -47.5q-31 -32 -71.5 -78t-87.5 -96q23 -1 46 -1.5t46 -0.5q16 0 35.5 3.5t36.5 11.5l-5.5 -10.5t-18 -21t-33.5 -12.5q-19 -1 -38 -1.5t-38 -0.5h-31.5t-30.5 1
q-46 -48 -96 -93.5t-101 -82.5t-101.5 -58.5t-98.5 -21.5z" />
    <glyph glyph-name="Ccedilla" unicode="&#xc7;" horiz-adv-x="527" 
d="M73 -233q-6 0 -6 8q0 3 3.5 4.5t5.5 1.5h19.5t32 4t31 15.5t17.5 33.5q2 12 -6.5 25.5t-17.5 28t-9 29.5q0 18 11 34.5t28 25.5q-60 11 -102 48t-42 110q0 65 25 127t67 115.5t94 92.5q46 35 106.5 57t120.5 22q25 0 47 -3.5t45 -14.5q20 -9 32 -22.5t12 -30.5v-5t-1 -5
q-4 -16 -18.5 -36.5t-22.5 -42.5q-1 -4 -11 -6.5t-8 1.5q8 13 12.5 32t4.5 38q0 14 -2.5 26.5t-8.5 21.5q-10 18 -31 25t-45 7q-23 0 -46 -5t-40 -11q-58 -21 -111 -66q-47 -41 -83.5 -95t-57.5 -111t-21 -109q0 -53 23 -84t60 -44t80 -13q38 0 75.5 8t68.5 20
q53 20 95.5 49t79.5 75q5 5 7 5q3 0 3 -4q0 -8 -8 -19q-34 -46 -77 -77t-92 -51q-33 -13 -76.5 -22t-87.5 -9q-21 0 -41 2q-13 -8 -21 -19t-8 -24q0 -15 10 -28t19.5 -26.5t5.5 -32.5q-5 -27 -29.5 -43.5t-55 -24.5t-55.5 -8z" />
    <glyph glyph-name="Egrave" unicode="&#xc8;" horiz-adv-x="478" 
d="M234 -12q-32 0 -65 1.5t-65 5.5q-71 6 -71 46q0 20 16 48q38 69 78 137.5t79 137.5q12 22 31 55t38 63q9 14 26 28.5t35 18.5q-21 -1 -53.5 -3t-66 -7.5t-60 -17t-37.5 -31.5q-4 -9 -7 -18t-3 -18q0 -23 16 -33q1 0 1 -2t-3.5 -4t-6.5 -1q-9 5 -22 24.5t-16 32.5
q-3 12 -3 22q0 26 17 40.5t43 21t53 8t48 1.5q53 0 106 1.5t105 1.5h45.5t44.5 -2q25 -1 34.5 -10t9.5 -22q0 -16 -10.5 -36.5t-19.5 -37.5q-4 -8 -13 -11.5t-7 5.5q5 20 5 40q0 18 -6.5 32.5t-24.5 20.5q-17 5 -53 5q-13 0 -26.5 -0.5t-27.5 -1.5q-40 -3 -54 -21
q-33 -46 -63.5 -99.5t-58.5 -101.5q-1 -2 -1 -5q0 -6 9 -6q35 0 75.5 -1t71.5 0q7 1 21.5 2t30 4t23.5 7q5 3 6 3q6 0 0.5 -11.5t-18 -23t-28.5 -11.5q-49 0 -82.5 2t-74.5 2h-21t-24 -1q-10 -1 -14 -8q-10 -18 -17.5 -33t-18.5 -35q-8 -15 -19.5 -38.5t-20.5 -48t-9 -42.5
q0 -31 29 -42.5t71 -12.5q58 0 114.5 11.5t106 39t86.5 74.5q2 2 3 2q3 0 4 -5.5t-1 -8.5q-31 -38 -60 -73.5t-58 -44.5q-21 -6 -68 -10.5t-104 -4.5zM492 614q-19 6 -45.5 15.5t-51 19t-36.5 16.5q-3 2 -6.5 8t-3.5 13q0 9 5 9t17.5 -6t30.5 -16q27 -14 48.5 -25.5
t44.5 -23.5q1 -2 0 -5.5t-3 -4.5z" />
    <glyph glyph-name="Eacute" unicode="&#xc9;" horiz-adv-x="478" 
d="M234 -12q-32 0 -65 1.5t-65 5.5q-71 6 -71 46q0 20 16 48q38 69 78 137.5t79 137.5q12 22 31 55t38 63q9 14 26 28.5t35 18.5q-21 -1 -53.5 -3t-66 -7.5t-60 -17t-37.5 -31.5q-4 -9 -7 -18t-3 -18q0 -23 16 -33q1 0 1 -2t-3.5 -4t-6.5 -1q-9 5 -22 24.5t-16 32.5
q-3 12 -3 22q0 26 17 40.5t43 21t53 8t48 1.5q53 0 106 1.5t105 1.5h45.5t44.5 -2q25 -1 34.5 -10t9.5 -22q0 -16 -10.5 -36.5t-19.5 -37.5q-4 -8 -13 -11.5t-7 5.5q5 20 5 40q0 18 -6.5 32.5t-24.5 20.5q-17 5 -53 5q-13 0 -26.5 -0.5t-27.5 -1.5q-40 -3 -54 -21
q-33 -46 -63.5 -99.5t-58.5 -101.5q-1 -2 -1 -5q0 -6 9 -6q35 0 75.5 -1t71.5 0q7 1 21.5 2t30 4t23.5 7q5 3 6 3q6 0 0.5 -11.5t-18 -23t-28.5 -11.5q-49 0 -82.5 2t-74.5 2h-21t-24 -1q-10 -1 -14 -8q-10 -18 -17.5 -33t-18.5 -35q-8 -15 -19.5 -38.5t-20.5 -48t-9 -42.5
q0 -31 29 -42.5t71 -12.5q58 0 114.5 11.5t106 39t86.5 74.5q2 2 3 2q3 0 4 -5.5t-1 -8.5q-31 -38 -60 -73.5t-58 -44.5q-21 -6 -68 -10.5t-104 -4.5zM386 614q-6 2 -4 9q23 12 46.5 24.5t55.5 29.5q11 6 24 13t17 6q2 -1 4 -3.5t1 -6.5q-2 -17 -10 -21q-12 -7 -36.5 -16.5
t-51.5 -19t-46 -15.5z" />
    <glyph glyph-name="Ecircumflex" unicode="&#xca;" horiz-adv-x="478" 
d="M234 -12q-32 0 -65 1.5t-65 5.5q-71 6 -71 46q0 20 16 48q38 69 78 137.5t79 137.5q12 22 31 55t38 63q9 14 26 28.5t35 18.5q-21 -1 -53.5 -3t-66 -7.5t-60 -17t-37.5 -31.5q-4 -9 -7 -18t-3 -18q0 -23 16 -33q1 0 1 -2t-3.5 -4t-6.5 -1q-9 5 -22 24.5t-16 32.5
q-3 12 -3 22q0 26 17 40.5t43 21t53 8t48 1.5q53 0 106 1.5t105 1.5h45.5t44.5 -2q25 -1 34.5 -10t9.5 -22q0 -16 -10.5 -36.5t-19.5 -37.5q-4 -8 -13 -11.5t-7 5.5q5 20 5 40q0 18 -6.5 32.5t-24.5 20.5q-17 5 -53 5q-13 0 -26.5 -0.5t-27.5 -1.5q-40 -3 -54 -21
q-33 -46 -63.5 -99.5t-58.5 -101.5q-1 -2 -1 -5q0 -6 9 -6q35 0 75.5 -1t71.5 0q7 1 21.5 2t30 4t23.5 7q5 3 6 3q6 0 0.5 -11.5t-18 -23t-28.5 -11.5q-49 0 -82.5 2t-74.5 2h-21t-24 -1q-10 -1 -14 -8q-10 -18 -17.5 -33t-18.5 -35q-8 -15 -19.5 -38.5t-20.5 -48t-9 -42.5
q0 -31 29 -42.5t71 -12.5q58 0 114.5 11.5t106 39t86.5 74.5q2 2 3 2q3 0 4 -5.5t-1 -8.5q-31 -38 -60 -73.5t-58 -44.5q-21 -6 -68 -10.5t-104 -4.5zM529 610q-10 -5 -30 12q-11 10 -26.5 26t-20.5 21q-5 8 -12 3q-5 -4 -21.5 -15.5t-33.5 -22.5t-26 -16q-12 -6 -20 -2
q29 20 58.5 41t54.5 43h12q10 -16 28.5 -36t39.5 -34q4 -2 8 -5t10 -3v-3q-3 -1 -11 -4.5t-10 -4.5z" />
    <glyph glyph-name="Edieresis" unicode="&#xcb;" horiz-adv-x="478" 
d="M234 -12q-32 0 -65 1.5t-65 5.5q-71 6 -71 46q0 20 16 48q38 69 78 137.5t79 137.5q12 22 31 55t38 63q9 14 26 28.5t35 18.5q-21 -1 -53.5 -3t-66 -7.5t-60 -17t-37.5 -31.5q-4 -9 -7 -18t-3 -18q0 -23 16 -33q1 0 1 -2t-3.5 -4t-6.5 -1q-9 5 -22 24.5t-16 32.5
q-3 12 -3 22q0 26 17 40.5t43 21t53 8t48 1.5q53 0 106 1.5t105 1.5h45.5t44.5 -2q25 -1 34.5 -10t9.5 -22q0 -16 -10.5 -36.5t-19.5 -37.5q-4 -8 -13 -11.5t-7 5.5q5 20 5 40q0 18 -6.5 32.5t-24.5 20.5q-17 5 -53 5q-13 0 -26.5 -0.5t-27.5 -1.5q-40 -3 -54 -21
q-33 -46 -63.5 -99.5t-58.5 -101.5q-1 -2 -1 -5q0 -6 9 -6q35 0 75.5 -1t71.5 0q7 1 21.5 2t30 4t23.5 7q5 3 6 3q6 0 0.5 -11.5t-18 -23t-28.5 -11.5q-49 0 -82.5 2t-74.5 2h-21t-24 -1q-10 -1 -14 -8q-10 -18 -17.5 -33t-18.5 -35q-8 -15 -19.5 -38.5t-20.5 -48t-9 -42.5
q0 -31 29 -42.5t71 -12.5q58 0 114.5 11.5t106 39t86.5 74.5q2 2 3 2q3 0 4 -5.5t-1 -8.5q-31 -38 -60 -73.5t-58 -44.5q-21 -6 -68 -10.5t-104 -4.5zM377 618q-20 0 -37 22q0 3 12.5 11t16.5 11q8 4 10 4q5 -3 14.5 -6t18 -5.5t8.5 -3.5q-1 -4 -6 -10q-28 -23 -37 -23z
M493 618q-20 0 -37 22q0 3 12.5 11t16.5 11q8 4 10 4q5 -3 14.5 -6t18 -5.5t8.5 -3.5q-1 -4 -6 -10q-28 -23 -37 -23z" />
    <glyph glyph-name="Igrave" unicode="&#xcc;" horiz-adv-x="365" 
d="M120 -10q-31 0 -59 17.5t-42 53.5q-5 13 -7 27.5t-2 28.5t5 14q6 0 6 -8q0 -47 23.5 -71t58.5 -24t68 20t61 51q45 50 77 101.5t58.5 106t53.5 113.5q14 30 34.5 56.5t45.5 42.5h-30q-15 0 -41.5 -2t-53.5 -9t-45 -23t-16 -43q1 -8 6 -21.5t6 -16.5l-10 -8
q-6 11 -15 25.5t-16.5 28.5t-8.5 21q-1 10 1.5 26t15.5 28q15 13 41.5 17t54.5 4q27 0 52 -2t41 -2l160 1l-13 -15q-10 0 -28.5 -1.5t-38.5 -5.5q-24 -4 -55 -26.5t-53 -59.5l-9 -15q-15 -34 -34 -81t-42.5 -99t-51.5 -100.5t-62 -84.5q-25 -27 -63 -46t-73 -19zM537 612
q-19 6 -45.5 15.5t-51 19t-36.5 16.5q-3 2 -6.5 8t-3.5 13q0 9 5 9t17.5 -6t30.5 -16q27 -14 48.5 -25.5t44.5 -23.5q1 -2 0 -5.5t-3 -4.5z" />
    <glyph glyph-name="Iacute" unicode="&#xcd;" horiz-adv-x="365" 
d="M120 -10q-31 0 -59 17.5t-42 53.5q-5 13 -7 27.5t-2 28.5t5 14q6 0 6 -8q0 -47 23.5 -71t58.5 -24t68 20t61 51q45 50 77 101.5t58.5 106t53.5 113.5q14 30 34.5 56.5t45.5 42.5h-30q-15 0 -41.5 -2t-53.5 -9t-45 -23t-16 -43q1 -8 6 -21.5t6 -16.5l-10 -8
q-6 11 -15 25.5t-16.5 28.5t-8.5 21q-1 10 1.5 26t15.5 28q15 13 41.5 17t54.5 4q27 0 52 -2t41 -2l160 1l-13 -15q-10 0 -28.5 -1.5t-38.5 -5.5q-24 -4 -55 -26.5t-53 -59.5l-9 -15q-15 -34 -34 -81t-42.5 -99t-51.5 -100.5t-62 -84.5q-25 -27 -63 -46t-73 -19zM431 612
q-6 2 -4 9q23 12 46.5 24.5t55.5 29.5q11 6 24 13t17 6q2 -1 4 -3.5t1 -6.5q-2 -17 -10 -21q-12 -7 -36.5 -16.5t-51.5 -19t-46 -15.5z" />
    <glyph glyph-name="Icircumflex" unicode="&#xce;" horiz-adv-x="365" 
d="M120 -10q-31 0 -59 17.5t-42 53.5q-5 13 -7 27.5t-2 28.5t5 14q6 0 6 -8q0 -47 23.5 -71t58.5 -24t68 20t61 51q45 50 77 101.5t58.5 106t53.5 113.5q14 30 34.5 56.5t45.5 42.5h-30q-15 0 -41.5 -2t-53.5 -9t-45 -23t-16 -43q1 -8 6 -21.5t6 -16.5l-10 -8
q-6 11 -15 25.5t-16.5 28.5t-8.5 21q-1 10 1.5 26t15.5 28q15 13 41.5 17t54.5 4q27 0 52 -2t41 -2l160 1l-13 -15q-10 0 -28.5 -1.5t-38.5 -5.5q-24 -4 -55 -26.5t-53 -59.5l-9 -15q-15 -34 -34 -81t-42.5 -99t-51.5 -100.5t-62 -84.5q-25 -27 -63 -46t-73 -19zM574 608
q-10 -5 -30 12q-11 10 -26.5 26t-20.5 21q-5 8 -12 3q-5 -4 -21.5 -15.5t-33.5 -22.5t-26 -16q-12 -6 -20 -2q29 20 58.5 41t54.5 43h12q10 -16 28.5 -36t39.5 -34q4 -2 8 -5t10 -3v-3q-3 -1 -11 -4.5t-10 -4.5z" />
    <glyph glyph-name="Idieresis" unicode="&#xcf;" horiz-adv-x="365" 
d="M120 -10q-31 0 -59 17.5t-42 53.5q-5 13 -7 27.5t-2 28.5t5 14q6 0 6 -8q0 -47 23.5 -71t58.5 -24t68 20t61 51q45 50 77 101.5t58.5 106t53.5 113.5q14 30 34.5 56.5t45.5 42.5h-30q-15 0 -41.5 -2t-53.5 -9t-45 -23t-16 -43q1 -8 6 -21.5t6 -16.5l-10 -8
q-6 11 -15 25.5t-16.5 28.5t-8.5 21q-1 10 1.5 26t15.5 28q15 13 41.5 17t54.5 4q27 0 52 -2t41 -2l160 1l-13 -15q-10 0 -28.5 -1.5t-38.5 -5.5q-24 -4 -55 -26.5t-53 -59.5l-9 -15q-15 -34 -34 -81t-42.5 -99t-51.5 -100.5t-62 -84.5q-25 -27 -63 -46t-73 -19zM422 616
q-20 0 -37 22q0 3 12.5 11t16.5 11q8 4 10 4q5 -3 14.5 -6t18 -5.5t8.5 -3.5q-1 -4 -6 -10q-28 -23 -37 -23zM538 616q-20 0 -37 22q0 3 12.5 11t16.5 11q8 4 10 4q5 -3 14.5 -6t18 -5.5t8.5 -3.5q-1 -4 -6 -10q-28 -23 -37 -23z" />
    <glyph glyph-name="Eth" unicode="&#xd0;" horiz-adv-x="626" 
d="M10 -19q-2 0 -7 1.5t-5 4.5q0 1 1 2l1 1q7 2 6.5 2t-0.5 -0.5t7 1.5q17 6 29.5 17.5t21.5 27.5q29 49 57 99t55 101q-19 -1 -37 -1.5t-38 -2.5q-2 0 3.5 8t13.5 17t13 8q10 -2 25.5 -3t32.5 -2l51 95q12 21 23 43l22 44q5 12 10.5 24t12.5 23q8 14 25.5 24.5t33.5 15.5
h-24q-20 0 -54.5 -2.5t-72.5 -8.5t-67.5 -18t-40.5 -32q-10 -18 -10 -35q0 -20 9 -27t9 -9t-3 -4t-5 -2q-6 0 -15 12t-16.5 26.5t-9.5 19.5q-3 11 -3 22q0 27 18.5 41.5t45.5 20.5t54.5 7.5t45.5 1.5q50 0 100 2.5t99 2.5q47 0 92.5 -6.5t82.5 -25.5t59.5 -54t22.5 -92
q0 -52 -19.5 -106.5t-48.5 -97.5q-122 -183 -342 -183q-34 0 -69.5 7t-66.5 23q-7 4 -14.5 6.5t-15.5 2.5q-17 0 -34 -10.5t-33 -21t-31 -10.5zM262 -2q75 0 140 29t114 81.5t77 120.5q13 32 21.5 67t8.5 69q0 78 -47.5 120.5t-124.5 42.5q-19 0 -39.5 -4t-33.5 -19
q-13 -16 -24.5 -35t-22.5 -37q-23 -40 -43.5 -82.5t-41.5 -83.5l-3 -5q25 0 44.5 1.5t33.5 2.5q3 0 -2.5 -8.5t-13.5 -16.5t-13 -8q-13 1 -28 2.5t-34 2.5l-49 -98q-7 -14 -14.5 -28.5t-14.5 -28.5q-2 -5 -4 -10.5t-2 -12.5q0 -13 8 -22t17 -17q19 -14 44 -18.5t47 -4.5z
" />
    <glyph glyph-name="Ntilde" unicode="&#xd1;" horiz-adv-x="721" 
d="M577 -30q-3 0 -5.5 2t-1.5 3q7 9 11.5 19.5t8.5 21.5q-13 70 -34.5 146t-46 152.5t-46.5 145.5q-7 -5 -14.5 -24t-10.5 -28q-13 -34 -30.5 -79.5t-39 -94t-48 -95t-58.5 -84.5q-15 -19 -41 -33.5t-54 -23t-51 -8.5q-31 0 -59.5 17.5t-42.5 53.5q-4 13 -6 27.5t-2 28.5
t5 14t5 -8q0 -47 26 -78t62 -31q35 0 70 17t63 47q45 50 76 106t55 116t49 120q15 38 42 66t63 35h-55q-35 0 -74 -3t-71 -13t-46 -30q-8 -12 -8 -29q0 -18 9 -34t23 -23l2 -2q0 -3 -4.5 -5.5t-9.5 -1.5q-8 5 -20 16.5t-21.5 24.5t-12.5 22q-4 12 -4 24q0 24 17.5 39
t45.5 23t60.5 11.5t62.5 4t52 0.5h121q5 1 0.5 -7t-11 -15.5t-10.5 -7.5q-10 1 -30.5 -3.5t-28.5 -10.5q3 -38 14.5 -89t27.5 -107.5t35.5 -113t38.5 -105.5q16 38 36 93t42.5 117t47 120.5t49 104.5t48.5 68q12 11 29 17.5t32 6.5q14 0 24 -6.5t9 -20.5l-1 -36q0 -1 -5 -2
t-4 0q1 13 -10 18.5t-18 5.5q-21 1 -44.5 -26t-48.5 -71t-49 -96.5t-45.5 -105t-38.5 -96.5t-28 -69q-10 -21 -10 -41v-6t1 -6q0 -4 1.5 -9t2.5 -10q0 -1 0.5 -2t0.5 -3q0 -8 -8 -14q-10 -7 -22 -12q-7 -3 -19.5 -15.5t-15.5 -17.5q-2 -2 -4 -2zM723 624q-16 0 -42 13
q-26 14 -39 14q-15 0 -28 -13t-17 -13q-1 1 -1 2q0 14 35 41q13 10 30 10q12 0 39 -11q24 -10 39 -10q19 0 34 21q5 0 5 -4q0 -15 -33 -42q-10 -8 -22 -8z" />
    <glyph glyph-name="Ograve" unicode="&#xd2;" horiz-adv-x="594" 
d="M232 -12q-40 0 -80 6.5t-72.5 23.5t-52.5 48t-20 80q0 41 16.5 94.5t49.5 108t82.5 101.5t115 75.5t147.5 28.5q120 0 175 -38.5t55 -119.5q0 -79 -32.5 -152t-90 -131t-132.5 -91.5t-161 -33.5zM224 3q61 0 116.5 23.5t101 64t79 92.5t52 109t18.5 113q0 62 -39 98
t-132 36q-53 0 -105.5 -26.5t-98 -70.5t-81 -97t-55.5 -107t-20 -101q0 -63 37.5 -98.5t126.5 -35.5zM526 630q-19 6 -45.5 15.5t-51 19t-36.5 16.5q-3 2 -6.5 8t-3.5 13q0 9 5 9t17.5 -6t30.5 -16q27 -14 48.5 -25.5t44.5 -23.5q1 -2 0 -5.5t-3 -4.5z" />
    <glyph glyph-name="Oacute" unicode="&#xd3;" horiz-adv-x="594" 
d="M232 -12q-40 0 -80 6.5t-72.5 23.5t-52.5 48t-20 80q0 41 16.5 94.5t49.5 108t82.5 101.5t115 75.5t147.5 28.5q120 0 175 -38.5t55 -119.5q0 -79 -32.5 -152t-90 -131t-132.5 -91.5t-161 -33.5zM224 3q61 0 116.5 23.5t101 64t79 92.5t52 109t18.5 113q0 62 -39 98
t-132 36q-53 0 -105.5 -26.5t-98 -70.5t-81 -97t-55.5 -107t-20 -101q0 -63 37.5 -98.5t126.5 -35.5zM420 630q-6 2 -4 9q23 12 46.5 24.5t55.5 29.5q11 6 24 13t17 6q2 -1 4 -3.5t1 -6.5q-2 -17 -10 -21q-12 -7 -36.5 -16.5t-51.5 -19t-46 -15.5z" />
    <glyph glyph-name="Ocircumflex" unicode="&#xd4;" horiz-adv-x="594" 
d="M232 -12q-40 0 -80 6.5t-72.5 23.5t-52.5 48t-20 80q0 41 16.5 94.5t49.5 108t82.5 101.5t115 75.5t147.5 28.5q120 0 175 -38.5t55 -119.5q0 -79 -32.5 -152t-90 -131t-132.5 -91.5t-161 -33.5zM224 3q61 0 116.5 23.5t101 64t79 92.5t52 109t18.5 113q0 62 -39 98
t-132 36q-53 0 -105.5 -26.5t-98 -70.5t-81 -97t-55.5 -107t-20 -101q0 -63 37.5 -98.5t126.5 -35.5zM563 626q-10 -5 -30 12q-11 10 -26.5 26t-20.5 21q-5 8 -12 3q-5 -4 -21.5 -15.5t-33.5 -22.5t-26 -16q-12 -6 -20 -2q29 20 58.5 41t54.5 43h12q10 -16 28.5 -36
t39.5 -34q4 -2 8 -5t10 -3v-3q-3 -1 -11 -4.5t-10 -4.5z" />
    <glyph glyph-name="Otilde" unicode="&#xd5;" horiz-adv-x="594" 
d="M232 -12q-40 0 -80 6.5t-72.5 23.5t-52.5 48t-20 80q0 41 16.5 94.5t49.5 108t82.5 101.5t115 75.5t147.5 28.5q120 0 175 -38.5t55 -119.5q0 -79 -32.5 -152t-90 -131t-132.5 -91.5t-161 -33.5zM224 3q61 0 116.5 23.5t101 64t79 92.5t52 109t18.5 113q0 62 -39 98
t-132 36q-53 0 -105.5 -26.5t-98 -70.5t-81 -97t-55.5 -107t-20 -101q0 -63 37.5 -98.5t126.5 -35.5zM508 624q-16 0 -42 13q-26 14 -39 14q-15 0 -28 -13t-17 -13q-1 1 -1 2q0 14 35 41q13 10 30 10q12 0 39 -11q24 -10 39 -10q19 0 34 21q5 0 5 -4q0 -15 -33 -42
q-10 -8 -22 -8z" />
    <glyph glyph-name="Odieresis" unicode="&#xd6;" horiz-adv-x="594" 
d="M232 -12q-40 0 -80 6.5t-72.5 23.5t-52.5 48t-20 80q0 41 16.5 94.5t49.5 108t82.5 101.5t115 75.5t147.5 28.5q120 0 175 -38.5t55 -119.5q0 -79 -32.5 -152t-90 -131t-132.5 -91.5t-161 -33.5zM224 3q61 0 116.5 23.5t101 64t79 92.5t52 109t18.5 113q0 62 -39 98
t-132 36q-53 0 -105.5 -26.5t-98 -70.5t-81 -97t-55.5 -107t-20 -101q0 -63 37.5 -98.5t126.5 -35.5zM411 634q-20 0 -37 22q0 3 12.5 11t16.5 11q8 4 10 4q5 -3 14.5 -6t18 -5.5t8.5 -3.5q-1 -4 -6 -10q-28 -23 -37 -23zM527 634q-20 0 -37 22q0 3 12.5 11t16.5 11
q8 4 10 4q5 -3 14.5 -6t18 -5.5t8.5 -3.5q-1 -4 -6 -10q-28 -23 -37 -23z" />
    <glyph glyph-name="multiply" unicode="&#xd7;" horiz-adv-x="426" 
d="M57 97q-1 -2 -1.5 3.5t-0.5 12.5q0 11 1 23t5 14q7 4 30.5 23t52 42.5t49.5 40.5q-13 11 -32.5 26.5t-40 32t-37 29.5t-22.5 18q-3 2 -4.5 11.5t-1.5 19.5q0 9 1 16t2 6q38 -36 79 -69.5t78 -70.5q15 12 38 32.5t48 43t44.5 40t26.5 24.5q2 1 2.5 -5.5t0.5 -15.5
q0 -10 -1.5 -20t-4.5 -12q-7 -5 -23.5 -18t-36.5 -29.5t-39.5 -32t-32.5 -26.5q21 -17 49.5 -40.5t52 -42.5t30.5 -23q4 -3 5.5 -15t1.5 -23q0 -18 -3 -15q-10 10 -30 27.5l-44 38.5t-46.5 41t-37.5 33q-16 -13 -38.5 -33t-46 -41t-43 -39t-30.5 -27z" />
    <glyph glyph-name="Oslash" unicode="&#xd8;" horiz-adv-x="594" 
d="M17 -34q-7 0 -11 1.5t-1 4.5q25 28 55 59q-24 18 -38.5 46t-14.5 69t16.5 94.5t49.5 108t82.5 101.5t115 75.5t147.5 28.5q88 0 141 -21q22 21 39 36q3 3 21 3q9 0 17 -0.5t6 -2.5q-20 -17 -55 -50q61 -38 61 -123q0 -79 -32.5 -152t-90 -131t-132.5 -91.5t-161 -33.5
q-39 0 -78.5 6t-71.5 23q-27 -27 -43 -45q-3 -3 -9.5 -4.5t-12.5 -1.5zM60 137q0 -51 23 -82q55 59 116.5 122t122.5 125t116.5 116.5t98.5 95.5q-41 25 -117 25q-53 0 -105.5 -26.5t-98 -70.5t-81 -97t-55.5 -107t-20 -101zM224 3q61 0 116.5 23.5t101 64t79 92.5t52 109
t18.5 113q0 57 -30 89q-48 -45 -108.5 -105t-125 -124t-123.5 -123.5t-104 -105.5q20 -16 50.5 -24.5t73.5 -8.5z" />
    <glyph glyph-name="Ugrave" unicode="&#xd9;" horiz-adv-x="611" 
d="M146 -26q-32 0 -44.5 11t-12.5 28q0 11 3.5 22.5t7.5 23.5q13 32 27.5 63t30.5 61q16 31 38 74t43.5 90.5t36 92.5t14.5 79h-88q-15 0 -41.5 -2t-54 -9t-45.5 -23t-16 -43q1 -8 6 -21.5t7 -16.5l-11 -8q-6 11 -15 25.5t-16 28.5t-8 21q0 2 -0.5 5t-0.5 6q0 11 4 22.5
t14 20.5q15 13 41.5 17t54.5 4q27 0 52 -2t41 -2h23t58.5 0.5t75.5 0.5h73l-13 -15q-18 0 -37.5 -5.5t-33.5 -22.5q-21 -27 -47 -71t-53 -97t-50 -106t-38.5 -99.5t-19.5 -78.5q-1 -18 8.5 -26t25.5 -8q21 0 41 11q40 20 80 56.5t76 78.5t61 78q40 57 77.5 124t64.5 126
q7 12 12.5 27.5t15.5 15.5q4 0 10 -1t13 -1q31 0 57 25q1 1 5 1t6.5 -1.5t0.5 -3.5q-22 -18 -37 -36t-33 -46q-21 -32 -47.5 -74t-53.5 -88t-49 -91t-34 -82q-6 -19 -10 -38t-4 -35q0 -24 10.5 -39t35.5 -15q5 0 9.5 0.5t9.5 1.5q19 3 43.5 21.5t46.5 40.5q22 20 37.5 38.5
t33.5 40.5q2 -4 2 -8q-1 -7 -4.5 -14t-8.5 -12q-7 -9 -21 -25.5t-31 -34.5q-12 -12 -36 -31.5t-51.5 -34.5t-51.5 -15q-37 0 -51 19.5t-14 47.5q0 35 14.5 77t27.5 76q-21 -25 -44 -47.5t-46 -45.5q-24 -23 -48.5 -46.5t-50.5 -42.5q-24 -16 -50 -27t-54 -11zM557 613
q-19 6 -45.5 15.5t-51 19t-36.5 16.5q-3 2 -6.5 8t-3.5 13q0 9 5 9t17.5 -6t30.5 -16q27 -14 48.5 -25.5t44.5 -23.5q1 -2 0 -5.5t-3 -4.5z" />
    <glyph glyph-name="Uacute" unicode="&#xda;" horiz-adv-x="611" 
d="M146 -26q-32 0 -44.5 11t-12.5 28q0 11 3.5 22.5t7.5 23.5q13 32 27.5 63t30.5 61q16 31 38 74t43.5 90.5t36 92.5t14.5 79h-88q-15 0 -41.5 -2t-54 -9t-45.5 -23t-16 -43q1 -8 6 -21.5t7 -16.5l-11 -8q-6 11 -15 25.5t-16 28.5t-8 21q0 2 -0.5 5t-0.5 6q0 11 4 22.5
t14 20.5q15 13 41.5 17t54.5 4q27 0 52 -2t41 -2h23t58.5 0.5t75.5 0.5h73l-13 -15q-18 0 -37.5 -5.5t-33.5 -22.5q-21 -27 -47 -71t-53 -97t-50 -106t-38.5 -99.5t-19.5 -78.5q-1 -18 8.5 -26t25.5 -8q21 0 41 11q40 20 80 56.5t76 78.5t61 78q40 57 77.5 124t64.5 126
q7 12 12.5 27.5t15.5 15.5q4 0 10 -1t13 -1q31 0 57 25q1 1 5 1t6.5 -1.5t0.5 -3.5q-22 -18 -37 -36t-33 -46q-21 -32 -47.5 -74t-53.5 -88t-49 -91t-34 -82q-6 -19 -10 -38t-4 -35q0 -24 10.5 -39t35.5 -15q5 0 9.5 0.5t9.5 1.5q19 3 43.5 21.5t46.5 40.5q22 20 37.5 38.5
t33.5 40.5q2 -4 2 -8q-1 -7 -4.5 -14t-8.5 -12q-7 -9 -21 -25.5t-31 -34.5q-12 -12 -36 -31.5t-51.5 -34.5t-51.5 -15q-37 0 -51 19.5t-14 47.5q0 35 14.5 77t27.5 76q-21 -25 -44 -47.5t-46 -45.5q-24 -23 -48.5 -46.5t-50.5 -42.5q-24 -16 -50 -27t-54 -11zM451 613
q-6 2 -4 9q23 12 46.5 24.5t55.5 29.5q11 6 24 13t17 6q2 -1 4 -3.5t1 -6.5q-2 -17 -10 -21q-12 -7 -36.5 -16.5t-51.5 -19t-46 -15.5z" />
    <glyph glyph-name="Ucircumflex" unicode="&#xdb;" horiz-adv-x="611" 
d="M146 -26q-32 0 -44.5 11t-12.5 28q0 11 3.5 22.5t7.5 23.5q13 32 27.5 63t30.5 61q16 31 38 74t43.5 90.5t36 92.5t14.5 79h-88q-15 0 -41.5 -2t-54 -9t-45.5 -23t-16 -43q1 -8 6 -21.5t7 -16.5l-11 -8q-6 11 -15 25.5t-16 28.5t-8 21q0 2 -0.5 5t-0.5 6q0 11 4 22.5
t14 20.5q15 13 41.5 17t54.5 4q27 0 52 -2t41 -2h23t58.5 0.5t75.5 0.5h73l-13 -15q-18 0 -37.5 -5.5t-33.5 -22.5q-21 -27 -47 -71t-53 -97t-50 -106t-38.5 -99.5t-19.5 -78.5q-1 -18 8.5 -26t25.5 -8q21 0 41 11q40 20 80 56.5t76 78.5t61 78q40 57 77.5 124t64.5 126
q7 12 12.5 27.5t15.5 15.5q4 0 10 -1t13 -1q31 0 57 25q1 1 5 1t6.5 -1.5t0.5 -3.5q-22 -18 -37 -36t-33 -46q-21 -32 -47.5 -74t-53.5 -88t-49 -91t-34 -82q-6 -19 -10 -38t-4 -35q0 -24 10.5 -39t35.5 -15q5 0 9.5 0.5t9.5 1.5q19 3 43.5 21.5t46.5 40.5q22 20 37.5 38.5
t33.5 40.5q2 -4 2 -8q-1 -7 -4.5 -14t-8.5 -12q-7 -9 -21 -25.5t-31 -34.5q-12 -12 -36 -31.5t-51.5 -34.5t-51.5 -15q-37 0 -51 19.5t-14 47.5q0 35 14.5 77t27.5 76q-21 -25 -44 -47.5t-46 -45.5q-24 -23 -48.5 -46.5t-50.5 -42.5q-24 -16 -50 -27t-54 -11zM594 609
q-10 -5 -30 12q-11 10 -26.5 26t-20.5 21q-5 8 -12 3q-5 -4 -21.5 -15.5t-33.5 -22.5t-26 -16q-12 -6 -20 -2q29 20 58.5 41t54.5 43h12q10 -16 28.5 -36t39.5 -34q4 -2 8 -5t10 -3v-3q-3 -1 -11 -4.5t-10 -4.5z" />
    <glyph glyph-name="Udieresis" unicode="&#xdc;" horiz-adv-x="611" 
d="M146 -26q-32 0 -44.5 11t-12.5 28q0 11 3.5 22.5t7.5 23.5q13 32 27.5 63t30.5 61q16 31 38 74t43.5 90.5t36 92.5t14.5 79h-88q-15 0 -41.5 -2t-54 -9t-45.5 -23t-16 -43q1 -8 6 -21.5t7 -16.5l-11 -8q-6 11 -15 25.5t-16 28.5t-8 21q0 2 -0.5 5t-0.5 6q0 11 4 22.5
t14 20.5q15 13 41.5 17t54.5 4q27 0 52 -2t41 -2h23t58.5 0.5t75.5 0.5h73l-13 -15q-18 0 -37.5 -5.5t-33.5 -22.5q-21 -27 -47 -71t-53 -97t-50 -106t-38.5 -99.5t-19.5 -78.5q-1 -18 8.5 -26t25.5 -8q21 0 41 11q40 20 80 56.5t76 78.5t61 78q40 57 77.5 124t64.5 126
q7 12 12.5 27.5t15.5 15.5q4 0 10 -1t13 -1q31 0 57 25q1 1 5 1t6.5 -1.5t0.5 -3.5q-22 -18 -37 -36t-33 -46q-21 -32 -47.5 -74t-53.5 -88t-49 -91t-34 -82q-6 -19 -10 -38t-4 -35q0 -24 10.5 -39t35.5 -15q5 0 9.5 0.5t9.5 1.5q19 3 43.5 21.5t46.5 40.5q22 20 37.5 38.5
t33.5 40.5q2 -4 2 -8q-1 -7 -4.5 -14t-8.5 -12q-7 -9 -21 -25.5t-31 -34.5q-12 -12 -36 -31.5t-51.5 -34.5t-51.5 -15q-37 0 -51 19.5t-14 47.5q0 35 14.5 77t27.5 76q-21 -25 -44 -47.5t-46 -45.5q-24 -23 -48.5 -46.5t-50.5 -42.5q-24 -16 -50 -27t-54 -11zM442 617
q-20 0 -37 22q0 3 12.5 11t16.5 11q8 4 10 4q5 -3 14.5 -6t18 -5.5t8.5 -3.5q-1 -4 -6 -10q-28 -23 -37 -23zM558 617q-20 0 -37 22q0 3 12.5 11t16.5 11q8 4 10 4q5 -3 14.5 -6t18 -5.5t8.5 -3.5q-1 -4 -6 -10q-28 -23 -37 -23z" />
    <glyph glyph-name="Yacute" unicode="&#xdd;" horiz-adv-x="452" 
d="M117 -39q-31 0 -59 17.5t-42 53.5q-5 13 -6.5 28t-1.5 29t5 14t5 -9q0 -46 23.5 -70.5t59.5 -24.5q44 0 82.5 24t70.5 59.5t57 71.5q-12 -7 -20 -7q-11 0 -10 8q0 2 1.5 5.5t2.5 5.5q3 8 5.5 17t5.5 17q8 32 16 80t8 97q0 42 -8 80t-29 62h-24q-15 0 -41.5 -2t-53.5 -9
t-45 -23t-16 -43q1 -8 6 -21.5t6 -16.5l-10 -8q-6 11 -15 25.5t-16.5 28.5t-8.5 21q-1 10 1.5 26t15.5 28q15 13 41.5 17t54.5 4q27 0 52 -2t41 -2l46.5 0.5t113.5 0.5l-21 -26q-28 0 -45.5 0.5t-31 1t-32.5 0.5q35 -24 48.5 -68t13.5 -94q0 -43 -7 -84.5t-15 -70.5
q47 65 90 134t96 130q17 19 40.5 43.5t52 43.5t57.5 19q14 0 24 -6t17 -21q5 -12 5 -22q0 -16 -6 -29t-9 -20q-1 -4 -5 -4t-3 4q2 5 2 10v9q0 18 -9 33t-29 15q-28 0 -62 -28t-63 -61q-52 -60 -89.5 -114t-70.5 -109.5t-71 -121.5q-21 -37 -48.5 -70.5t-62 -54.5t-80.5 -21z
M440 623q-6 2 -4 9q23 12 46.5 24.5t55.5 29.5q11 6 24 13t17 6q2 -1 4 -3.5t1 -6.5q-2 -17 -10 -21q-12 -7 -36.5 -16.5t-51.5 -19t-46 -15.5z" />
    <glyph glyph-name="Thorn" unicode="&#xde;" horiz-adv-x="541" 
d="M-43 -140q-7 0 -11 3.5t0 5.5q22 4 38 16.5t26 31.5q21 35 41.5 70.5t39.5 71.5q23 44 47 88.5t48 88.5q9 16 26 48t39 72t44 80.5t41.5 74t31.5 52t13 13.5q18 7 40 17t44.5 17.5t39.5 7.5q5 0 10 -2.5t5 -5.5q0 -6 -20 -6q-10 0 -21 -3.5t-30 -21.5q-17 -16 -47 -58
t-65 -97q29 0 65 -1t68 -10.5t48 -34.5q20 -31 20 -66q0 -39 -22.5 -73.5t-56.5 -60.5t-69 -40q-37 -15 -82.5 -20t-84.5 -5q-16 0 -29.5 0.5t-24.5 1.5q-22 -42 -42.5 -83t-33.5 -74t-13 -51q0 -4 2 -10q1 -1 1 -3q0 -3 -3 -3q-8 0 -16 4t-19 4q-10 0 -20 -5
q-10 -4 -26 -15t-36 -18q-2 -1 -6 -1zM216 134q31 0 70 6t77.5 20.5t68.5 41t44 66.5q5 12 6.5 24.5t1.5 24.5q0 34 -17 60t-49 30q-4 1 -9.5 1h-11.5q-19 0 -40.5 -5t-32.5 -19q-13 -18 -35 -56t-46.5 -82.5t-45.5 -80.5l-16 -29q8 -1 16.5 -1.5t18.5 -0.5z" />
    <glyph glyph-name="germandbls" unicode="&#xdf;" horiz-adv-x="461" 
d="M-198 -226q-39 0 -65.5 12.5t-35.5 37.5q-1 3 -1.5 6t-0.5 7q0 15 7 33.5t15 39.5q3 6 7 6q7 0 4 -10q-7 -15 -7 -32q0 -34 30 -54t68 -20q15 0 30.5 3.5t29.5 10.5q47 24 77 64t53 83q35 67 60.5 140.5t54.5 145.5h-23q-5 0 -11 -1t-11 -2l-2 1q2 11 19.5 19.5t27.5 8.5
h12q17 43 43 96.5t58.5 104t68.5 82.5q27 24 60.5 39t73.5 16q62 0 99.5 -34.5t37.5 -83.5q0 -23 -9.5 -47.5t-29.5 -47.5q-25 -28 -62 -45t-81 -22q-25 -4 -35 -12.5t-10 -19.5q0 -16 15 -36t33.5 -38.5t28.5 -32.5q28 -38 28 -74q0 -40 -27 -72t-67.5 -51t-82.5 -19
q-37 0 -68 18.5t-44 59.5q-2 8 -2 14q0 20 9.5 42.5t22.5 33.5q1 1 4 1q4 0 6 -3t0 -5q-5 -8 -8 -23q0 -4 -0.5 -7t-0.5 -6q0 -34 16.5 -56.5t42.5 -33.5t53 -11q44 0 69.5 24t25.5 70q0 38 -17 66t-37.5 52t-33.5 49q-6 12 -6 22q0 20 17.5 34t38.5 21q44 10 83 28.5
t63 49.5q29 38 29 84q0 38 -24 67t-74 29q-34 0 -63.5 -15t-53.5 -38q-30 -28 -57 -74t-51.5 -101.5t-47 -113.5t-43 -112t-40.5 -96q-19 -42 -47 -89t-64 -89t-80.5 -68t-97.5 -26z" />
    <glyph glyph-name="agrave" unicode="&#xe0;" horiz-adv-x="294" 
d="M170 -3q-10 0 -17 4t-7 15q0 14 7 32t16 35.5t16 28.5q-35 -37 -73 -70q-19 -16 -42 -30t-49 -14q-10 0 -14 6.5t-4 15.5q0 5 1 7q5 39 25 81t49 79t59 60q34 26 75 26h115q5 0 5 -4q0 -8 -9 -8q-10 0 -20 -12.5t-15 -20.5q-7 -11 -22 -37t-30.5 -56.5t-26.5 -56.5
t-11 -38q0 -14 14 -14q15 0 34 14t38.5 34.5t36 41t26.5 32.5q6 -6 -0.5 -16.5t-11.5 -16.5q-20 -26 -46 -53.5t-56.5 -46t-62.5 -18.5zM62 32q12 0 33.5 17.5t46.5 44t47 56t36.5 54t14.5 37.5q0 11 -6.5 15t-16.5 4q-16 0 -34.5 -11.5t-29.5 -22.5q-12 -11 -28.5 -34.5
t-32.5 -51.5t-27 -54t-11 -42q0 -12 8 -12zM285 331q-20 11 -47 26t-49.5 29.5t-30.5 23.5q-1 2 -2.5 9t-1.5 13q0 9 3 9q5 0 11.5 -4t20.5 -17q27 -23 52.5 -43.5t45.5 -36.5q1 -2 0 -5.5t-2 -3.5z" />
    <glyph glyph-name="aacute" unicode="&#xe1;" horiz-adv-x="294" 
d="M170 -3q-10 0 -17 4t-7 15q0 14 7 32t16 35.5t16 28.5q-35 -37 -73 -70q-19 -16 -42 -30t-49 -14q-10 0 -14 6.5t-4 15.5q0 5 1 7q5 39 25 81t49 79t59 60q34 26 75 26h115q5 0 5 -4q0 -8 -9 -8q-10 0 -20 -12.5t-15 -20.5q-7 -11 -22 -37t-30.5 -56.5t-26.5 -56.5
t-11 -38q0 -14 14 -14q15 0 34 14t38.5 34.5t36 41t26.5 32.5q6 -6 -0.5 -16.5t-11.5 -16.5q-20 -26 -46 -53.5t-56.5 -46t-62.5 -18.5zM62 32q12 0 33.5 17.5t46.5 44t47 56t36.5 54t14.5 37.5q0 11 -6.5 15t-16.5 4q-16 0 -34.5 -11.5t-29.5 -22.5q-12 -11 -28.5 -34.5
t-32.5 -51.5t-27 -54t-11 -42q0 -12 8 -12zM192 330q-1 0 -2 3.5t0 5.5q20 16 45.5 36.5t52.5 43.5q14 13 21 17t11 4q3 0 3 -9q0 -6 -1 -13t-3 -9q-8 -9 -30.5 -23.5t-49.5 -29.5t-47 -26z" />
    <glyph glyph-name="acircumflex" unicode="&#xe2;" horiz-adv-x="294" 
d="M170 -3q-10 0 -17 4t-7 15q0 14 7 32t16 35.5t16 28.5q-35 -37 -73 -70q-19 -16 -42 -30t-49 -14q-10 0 -14 6.5t-4 15.5q0 5 1 7q5 39 25 81t49 79t59 60q34 26 75 26h115q5 0 5 -4q0 -8 -9 -8q-10 0 -20 -12.5t-15 -20.5q-7 -11 -22 -37t-30.5 -56.5t-26.5 -56.5
t-11 -38q0 -14 14 -14q15 0 34 14t38.5 34.5t36 41t26.5 32.5q6 -6 -0.5 -16.5t-11.5 -16.5q-20 -26 -46 -53.5t-56.5 -46t-62.5 -18.5zM62 32q12 0 33.5 17.5t46.5 44t47 56t36.5 54t14.5 37.5q0 11 -6.5 15t-16.5 4q-16 0 -34.5 -11.5t-29.5 -22.5q-12 -11 -28.5 -34.5
t-32.5 -51.5t-27 -54t-11 -42q0 -12 8 -12zM325 339q-10 -5 -30 12q-11 10 -26.5 26t-20.5 21q-5 8 -12 3q-5 -4 -21.5 -15.5t-33.5 -22.5t-26 -16q-12 -6 -20 -2q29 20 58.5 41t54.5 43h12q10 -16 28.5 -36t39.5 -34q4 -2 8 -5t10 -3v-3q-3 -1 -11 -4.5t-10 -4.5z" />
    <glyph glyph-name="atilde" unicode="&#xe3;" horiz-adv-x="294" 
d="M170 -3q-10 0 -17 4t-7 15q0 14 7 32t16 35.5t16 28.5q-35 -37 -73 -70q-19 -16 -42 -30t-49 -14q-10 0 -14 6.5t-4 15.5q0 5 1 7q5 39 25 81t49 79t59 60q34 26 75 26h115q5 0 5 -4q0 -8 -9 -8q-10 0 -20 -12.5t-15 -20.5q-7 -11 -22 -37t-30.5 -56.5t-26.5 -56.5
t-11 -38q0 -14 14 -14q15 0 34 14t38.5 34.5t36 41t26.5 32.5q6 -6 -0.5 -16.5t-11.5 -16.5q-20 -26 -46 -53.5t-56.5 -46t-62.5 -18.5zM62 32q12 0 33.5 17.5t46.5 44t47 56t36.5 54t14.5 37.5q0 11 -6.5 15t-16.5 4q-16 0 -34.5 -11.5t-29.5 -22.5q-12 -11 -28.5 -34.5
t-32.5 -51.5t-27 -54t-11 -42q0 -12 8 -12zM275 337q-16 0 -42 13q-26 14 -39 14q-15 0 -28 -13t-17 -13q-1 1 -1 2q0 14 35 41q13 10 30 10q12 0 39 -11q24 -10 39 -10q19 0 34 21q5 0 5 -4q0 -15 -33 -42q-10 -8 -22 -8z" />
    <glyph glyph-name="adieresis" unicode="&#xe4;" horiz-adv-x="294" 
d="M170 -3q-10 0 -17 4t-7 15q0 14 7 32t16 35.5t16 28.5q-35 -37 -73 -70q-19 -16 -42 -30t-49 -14q-10 0 -14 6.5t-4 15.5q0 5 1 7q5 39 25 81t49 79t59 60q34 26 75 26h115q5 0 5 -4q0 -8 -9 -8q-10 0 -20 -12.5t-15 -20.5q-7 -11 -22 -37t-30.5 -56.5t-26.5 -56.5
t-11 -38q0 -14 14 -14q15 0 34 14t38.5 34.5t36 41t26.5 32.5q6 -6 -0.5 -16.5t-11.5 -16.5q-20 -26 -46 -53.5t-56.5 -46t-62.5 -18.5zM62 32q12 0 33.5 17.5t46.5 44t47 56t36.5 54t14.5 37.5q0 11 -6.5 15t-16.5 4q-16 0 -34.5 -11.5t-29.5 -22.5q-12 -11 -28.5 -34.5
t-32.5 -51.5t-27 -54t-11 -42q0 -12 8 -12zM185 347q-21 0 -37 22q0 3 12.5 11.5t16.5 10.5q7 4 10 4q5 -3 14.5 -6.5t18 -5.5t8.5 -3q-1 -4 -6 -10q-29 -23 -37 -23zM301 347q-21 0 -37 22q0 3 12.5 11.5t16.5 10.5q7 4 10 4q5 -3 14.5 -6.5t18 -5.5t8.5 -3q-1 -4 -6 -10
q-29 -23 -37 -23z" />
    <glyph glyph-name="aring" unicode="&#xe5;" horiz-adv-x="294" 
d="M170 -3q-10 0 -17 4t-7 15q0 14 7 32t16 35.5t16 28.5q-35 -37 -73 -70q-19 -16 -42 -30t-49 -14q-10 0 -14 6.5t-4 15.5q0 5 1 7q5 39 25 81t49 79t59 60q34 26 75 26h115q5 0 5 -4q0 -8 -9 -8q-10 0 -20 -12.5t-15 -20.5q-7 -11 -22 -37t-30.5 -56.5t-26.5 -56.5
t-11 -38q0 -14 14 -14q15 0 34 14t38.5 34.5t36 41t26.5 32.5q6 -6 -0.5 -16.5t-11.5 -16.5q-20 -26 -46 -53.5t-56.5 -46t-62.5 -18.5zM62 32q12 0 33.5 17.5t46.5 44t47 56t36.5 54t14.5 37.5q0 11 -6.5 15t-16.5 4q-16 0 -34.5 -11.5t-29.5 -22.5q-12 -11 -28.5 -34.5
t-32.5 -51.5t-27 -54t-11 -42q0 -12 8 -12zM236 333q-30 0 -30 25q0 7 6 20.5t15.5 26t21.5 15.5q8 11 21 18.5t26 7.5q16 0 23.5 -9.5t7.5 -22.5q0 -20 -14 -38.5t-34.5 -30.5t-42.5 -12zM248 348q21 0 38 19.5t20 36.5q0 2 0.5 4t0.5 4q0 8 -3.5 13.5t-11.5 5.5
q-7 0 -13.5 -3t-12.5 -7l8 -4q-9 -16 -21 -25t-16 -29v-3q0 -12 11 -12z" />
    <glyph glyph-name="ae" unicode="&#xe6;" horiz-adv-x="397" 
d="M239 -8q-42 0 -58 16t-16 39q0 14 4 29.5t11 30.5q-16 -17 -33.5 -33.5t-34.5 -31.5q-19 -16 -42 -30t-49 -14q-10 0 -14 6.5t-4 15.5q0 5 1 7q5 39 25 81t49 79t59 60q17 13 36 19t39 7l105 5h5q16 0 10 -10q11 4 22 6.5t21 2.5q26 0 36 -12.5t10 -29.5q0 -31 -18.5 -51
t-45.5 -32.5t-52 -20.5q-15 -4 -35 -8t-38 -4q-7 -18 -11 -35t-4 -31q0 -17 8.5 -28t28.5 -11q8 0 19 2t24 6q30 10 59 32t53.5 47.5t37.5 42.5q3 -3 3 -7q0 -5 -7 -16q-20 -28 -52 -58t-71 -50.5t-81 -20.5zM62 32q12 0 33.5 17.5t46.5 44t47 56t36.5 54t14.5 37.5
q0 11 -6.5 15t-16.5 4q-16 0 -34.5 -11.5t-29.5 -22.5q-12 -11 -28.5 -34.5t-32.5 -51.5t-27 -54t-11 -42q0 -12 8 -12zM240 139q13 -1 29.5 0.5t32.5 6.5q41 12 59.5 38.5t18.5 47.5q0 12 -5 20t-16 8q-29 0 -52 -21.5t-40 -49.5t-27 -50z" />
    <glyph glyph-name="ccedilla" unicode="&#xe7;" horiz-adv-x="238" 
d="M76 -8q-37 0 -52 14t-15 36q0 29 19 64.5t36 59.5q17 23 38.5 43.5t46.5 35.5q16 10 43.5 21.5t46.5 11.5q23 0 32 -10.5t9 -25.5q0 -12 -4 -24.5t-9 -23.5q-3 -6 -9 -8.5t-6 1.5q0 5 1 9t1 9q0 19 -8.5 37.5t-25.5 18.5q-18 0 -39 -12.5t-29 -21.5q-26 -27 -50.5 -67
t-35.5 -76q-7 -21 -7 -36q0 -17 9 -24t22 -7q10 0 21.5 3t24.5 7q30 10 60.5 31.5t55.5 46t38 42.5q2 -2 2 -6q0 -5 -4 -11.5t-6 -10.5q-21 -28 -55 -57.5t-73.5 -49.5t-77.5 -20zM-72.3916 -180.947q-6.49121 0 -6.49121 5.0498q0 3.36621 3.78711 5.0498
q3.78613 1.68359 5.9502 1.68359q5.40918 0.841797 21.0957 0.841797t34.0781 3.36621t33.5371 12.624q15.1465 9.25781 19.4736 27.7734q2.16406 10.0996 -7.03223 21.4609q-9.19531 11.3613 -18.9326 23.5654q-9.73633 12.2031 -9.73633 24.8271q0 21.041 21.0957 38.2939
q21.0967 17.2529 51.3887 17.2529h21.6367q-22.7188 -4.20801 -39.4873 -16.832q-16.7686 -12.625 -16.7686 -27.7734q0 -12.624 10.8184 -23.5654t20.5547 -22.3027q9.73633 -11.3623 6.49121 -27.3525q-5.40918 -22.7236 -31.915 -36.6104
q-26.5049 -13.8867 -59.501 -20.6191q-32.9971 -6.7334 -60.043 -6.7334z" />
    <glyph glyph-name="egrave" unicode="&#xe8;" horiz-adv-x="249" 
d="M91 -8q-41 0 -57 16t-16 39q0 29 15.5 62t29.5 56q16 24 43 50t59 44t62 18q26 0 36 -12.5t10 -29.5q0 -31 -18.5 -51t-45.5 -32.5t-52 -20.5q-15 -4 -35 -8t-38 -4q-7 -18 -11 -35t-4 -31q0 -17 8.5 -28t28.5 -11q8 0 19 2t24 6q30 10 59 32t53.5 47.5t37.5 42.5
q3 -3 3 -7q0 -5 -7 -16q-20 -28 -52 -58t-71 -50.5t-81 -20.5zM92 139q13 -1 29.5 0.5t32.5 6.5q41 12 59.5 38.5t18.5 47.5q0 12 -5 20t-16 8q-29 0 -52 -21.5t-40 -49.5t-27 -50zM270 331q-20 11 -47 26t-49.5 29.5t-30.5 23.5q-1 2 -2.5 9t-1.5 13q0 9 3 9q5 0 11.5 -4
t20.5 -17q27 -23 52.5 -43.5t45.5 -36.5q1 -2 0 -5.5t-2 -3.5z" />
    <glyph glyph-name="eacute" unicode="&#xe9;" horiz-adv-x="249" 
d="M91 -8q-41 0 -57 16t-16 39q0 29 15.5 62t29.5 56q16 24 43 50t59 44t62 18q26 0 36 -12.5t10 -29.5q0 -31 -18.5 -51t-45.5 -32.5t-52 -20.5q-15 -4 -35 -8t-38 -4q-7 -18 -11 -35t-4 -31q0 -17 8.5 -28t28.5 -11q8 0 19 2t24 6q30 10 59 32t53.5 47.5t37.5 42.5
q3 -3 3 -7q0 -5 -7 -16q-20 -28 -52 -58t-71 -50.5t-81 -20.5zM92 139q13 -1 29.5 0.5t32.5 6.5q41 12 59.5 38.5t18.5 47.5q0 12 -5 20t-16 8q-29 0 -52 -21.5t-40 -49.5t-27 -50zM177 330q-1 0 -2 3.5t0 5.5q20 16 45.5 36.5t52.5 43.5q14 13 21 17t11 4q3 0 3 -9
q0 -6 -1 -13t-3 -9q-8 -9 -30.5 -23.5t-49.5 -29.5t-47 -26z" />
    <glyph glyph-name="ecircumflex" unicode="&#xea;" horiz-adv-x="249" 
d="M91 -8q-41 0 -57 16t-16 39q0 29 15.5 62t29.5 56q16 24 43 50t59 44t62 18q26 0 36 -12.5t10 -29.5q0 -31 -18.5 -51t-45.5 -32.5t-52 -20.5q-15 -4 -35 -8t-38 -4q-7 -18 -11 -35t-4 -31q0 -17 8.5 -28t28.5 -11q8 0 19 2t24 6q30 10 59 32t53.5 47.5t37.5 42.5
q3 -3 3 -7q0 -5 -7 -16q-20 -28 -52 -58t-71 -50.5t-81 -20.5zM92 139q13 -1 29.5 0.5t32.5 6.5q41 12 59.5 38.5t18.5 47.5q0 12 -5 20t-16 8q-29 0 -52 -21.5t-40 -49.5t-27 -50zM310 339q-10 -5 -30 12q-11 10 -26.5 26t-20.5 21q-5 8 -12 3q-5 -4 -21.5 -15.5
t-33.5 -22.5t-26 -16q-12 -6 -20 -2q29 20 58.5 41t54.5 43h12q10 -16 28.5 -36t39.5 -34q4 -2 8 -5t10 -3v-3q-3 -1 -11 -4.5t-10 -4.5z" />
    <glyph glyph-name="edieresis" unicode="&#xeb;" horiz-adv-x="249" 
d="M91 -8q-41 0 -57 16t-16 39q0 29 15.5 62t29.5 56q16 24 43 50t59 44t62 18q26 0 36 -12.5t10 -29.5q0 -31 -18.5 -51t-45.5 -32.5t-52 -20.5q-15 -4 -35 -8t-38 -4q-7 -18 -11 -35t-4 -31q0 -17 8.5 -28t28.5 -11q8 0 19 2t24 6q30 10 59 32t53.5 47.5t37.5 42.5
q3 -3 3 -7q0 -5 -7 -16q-20 -28 -52 -58t-71 -50.5t-81 -20.5zM92 139q13 -1 29.5 0.5t32.5 6.5q41 12 59.5 38.5t18.5 47.5q0 12 -5 20t-16 8q-29 0 -52 -21.5t-40 -49.5t-27 -50zM170 347q-21 0 -37 22q0 3 12.5 11.5t16.5 10.5q7 4 10 4q5 -3 14.5 -6.5t18 -5.5t8.5 -3
q-1 -4 -6 -10q-29 -23 -37 -23zM286 347q-21 0 -37 22q0 3 12.5 11.5t16.5 10.5q7 4 10 4q5 -3 14.5 -6.5t18 -5.5t8.5 -3q-1 -4 -6 -10q-29 -23 -37 -23z" />
    <glyph glyph-name="igrave" unicode="&#xec;" horiz-adv-x="192" 
d="M68 -3q-10 0 -16.5 4t-6.5 15q0 14 7.5 33t17 38t14.5 31q7 14 17.5 36.5t20 43t13.5 28.5q-14 -15 -33.5 -37.5t-36.5 -43.5t-26 -33q-3 -4 -5 -4t-2 5q0 8 5 15q19 24 42.5 54t42.5 55.5t24 33.5q11 2 32.5 6t29.5 11q3 3 6 3q2 0 2.5 -3.5t-2.5 -7.5q-6 -7 -21 -34
t-31.5 -59.5t-30.5 -58.5q-14 -27 -24 -52t-10 -36q0 -14 14 -14q13 0 33.5 16t41.5 38.5t37 41.5q5 6 12.5 14.5t9.5 10.5q2 -2 2 -7q-1 -7 -5 -13.5t-8 -11.5q-21 -26 -46 -53.5t-55 -46t-65 -18.5zM228 331q-20 11 -47 26t-49.5 29.5t-30.5 23.5q-1 2 -2.5 9t-1.5 13
q0 9 3 9q5 0 11.5 -4t20.5 -17q27 -23 52.5 -43.5t45.5 -36.5q1 -2 0 -5.5t-2 -3.5z" />
    <glyph glyph-name="iacute" unicode="&#xed;" horiz-adv-x="192" 
d="M68 -3q-10 0 -16.5 4t-6.5 15q0 14 7.5 33t17 38t14.5 31q7 14 17.5 36.5t20 43t13.5 28.5q-14 -15 -33.5 -37.5t-36.5 -43.5t-26 -33q-3 -4 -5 -4t-2 5q0 8 5 15q19 24 42.5 54t42.5 55.5t24 33.5q11 2 32.5 6t29.5 11q3 3 6 3q2 0 2.5 -3.5t-2.5 -7.5q-6 -7 -21 -34
t-31.5 -59.5t-30.5 -58.5q-14 -27 -24 -52t-10 -36q0 -14 14 -14q13 0 33.5 16t41.5 38.5t37 41.5q5 6 12.5 14.5t9.5 10.5q2 -2 2 -7q-1 -7 -5 -13.5t-8 -11.5q-21 -26 -46 -53.5t-55 -46t-65 -18.5zM135 330q-1 0 -2 3.5t0 5.5q20 16 45.5 36.5t52.5 43.5q14 13 21 17
t11 4q3 0 3 -9q0 -6 -1 -13t-3 -9q-8 -9 -30.5 -23.5t-49.5 -29.5t-47 -26z" />
    <glyph glyph-name="icircumflex" unicode="&#xee;" horiz-adv-x="192" 
d="M68 -3q-10 0 -16.5 4t-6.5 15q0 14 7.5 33t17 38t14.5 31q7 14 17.5 36.5t20 43t13.5 28.5q-14 -15 -33.5 -37.5t-36.5 -43.5t-26 -33q-3 -4 -5 -4t-2 5q0 8 5 15q19 24 42.5 54t42.5 55.5t24 33.5q11 2 32.5 6t29.5 11q3 3 6 3q2 0 2.5 -3.5t-2.5 -7.5q-6 -7 -21 -34
t-31.5 -59.5t-30.5 -58.5q-14 -27 -24 -52t-10 -36q0 -14 14 -14q13 0 33.5 16t41.5 38.5t37 41.5q5 6 12.5 14.5t9.5 10.5q2 -2 2 -7q-1 -7 -5 -13.5t-8 -11.5q-21 -26 -46 -53.5t-55 -46t-65 -18.5zM268 339q-10 -5 -30 12q-11 10 -26.5 26t-20.5 21q-5 8 -12 3
q-5 -4 -21.5 -15.5t-33.5 -22.5t-26 -16q-12 -6 -20 -2q29 20 58.5 41t54.5 43h12q10 -16 28.5 -36t39.5 -34q4 -2 8 -5t10 -3v-3q-3 -1 -11 -4.5t-10 -4.5z" />
    <glyph glyph-name="idieresis" unicode="&#xef;" horiz-adv-x="192" 
d="M68 -3q-10 0 -16.5 4t-6.5 15q0 14 7.5 33t17 38t14.5 31q7 14 17.5 36.5t20 43t13.5 28.5q-14 -15 -33.5 -37.5t-36.5 -43.5t-26 -33q-3 -4 -5 -4t-2 5q0 8 5 15q19 24 42.5 54t42.5 55.5t24 33.5q11 2 32.5 6t29.5 11q3 3 6 3q2 0 2.5 -3.5t-2.5 -7.5q-6 -7 -21 -34
t-31.5 -59.5t-30.5 -58.5q-14 -27 -24 -52t-10 -36q0 -14 14 -14q13 0 33.5 16t41.5 38.5t37 41.5q5 6 12.5 14.5t9.5 10.5q2 -2 2 -7q-1 -7 -5 -13.5t-8 -11.5q-21 -26 -46 -53.5t-55 -46t-65 -18.5zM128 347q-21 0 -37 22q0 3 12.5 11.5t16.5 10.5q7 4 10 4
q5 -3 14.5 -6.5t18 -5.5t8.5 -3q-1 -4 -6 -10q-29 -23 -37 -23zM244 347q-21 0 -37 22q0 3 12.5 11.5t16.5 10.5q7 4 10 4q5 -3 14.5 -6.5t18 -5.5t8.5 -3q-1 -4 -6 -10q-29 -23 -37 -23z" />
    <glyph glyph-name="eth" unicode="&#xf0;" horiz-adv-x="330" 
d="M35 -2q-10 0 -21 6.5t-11 15.5q0 5 1 7q5 39 25 81t49 79t59 60q23 17 44 21.5t46 4.5h33q12 27 19 64t7 74q0 24 -3 45q-19 -10 -37.5 -20.5t-37.5 -24.5q-2 -1 -1 9t4.5 21.5t7.5 13.5q11 3 27 10.5t32 15.5q-7 30 -21.5 52.5t-37.5 31.5q-10 4 -10 9q0 7 19 12
q3 1 9 1q17 0 42 -17.5t38 -69.5q23 13 40.5 24t30.5 18q3 2 1.5 -8t-4.5 -21t-8 -13q-12 -6 -25 -11t-30 -13q2 -14 3.5 -30.5t1.5 -35.5q0 -98 -45.5 -193t-141.5 -171q-28 -21 -55 -34.5t-50 -13.5zM62 32q12 0 34.5 14t49 37t50.5 50.5t39.5 55t15.5 50.5q0 11 -6.5 15
t-16.5 4q-28 0 -58.5 -22.5t-57 -57t-42.5 -70.5t-16 -64q0 -12 8 -12z" />
    <glyph glyph-name="ntilde" unicode="&#xf1;" horiz-adv-x="330" 
d="M40 -15q-4 0 0 9q5 9 9.5 20t9.5 24q10 24 22 54t23 58.5t19.5 49t11.5 26.5q-14 -15 -33.5 -37.5t-36.5 -43.5t-26 -33q-3 -4 -5 -4t-2 5q0 8 5 15q19 24 42.5 54t42.5 55.5t24 33.5q11 2 32.5 6t29.5 11q3 3 6 3q2 0 2.5 -3.5t-2.5 -7.5q-6 -7 -20.5 -32.5t-31 -56.5
t-30.5 -56q12 16 26 31t27 29q12 12 33 30t44 33t40 17q4 1 7.5 1h5.5q22 0 22 -16q0 -12 -13 -32q-7 -11 -21.5 -36.5t-29 -55t-25 -55t-10.5 -37.5q0 -14 14 -14q17 0 37.5 17t44.5 43.5t48 56.5q2 -2 2 -7q0 -7 -4.5 -13.5t-8.5 -11.5q-10 -13 -26.5 -32.5t-33.5 -38
t-31 -29.5q-10 -7 -26 -15t-32 -8q-18 0 -25 9.5t-7 23.5q0 16 6 34t13.5 34.5t11.5 24.5q18 35 33 66t21 44q3 6 3 10q0 7 -11 1t-26.5 -18t-28.5 -23.5t-17 -15.5q-37 -39 -64.5 -86.5t-46.5 -97.5q-13 -1 -26 -7t-18 -6zM295 337q-16 0 -42 13q-26 14 -39 14
q-15 0 -28 -13t-17 -13q-1 1 -1 2q0 14 35 41q13 10 30 10q12 0 39 -11q24 -10 39 -10q19 0 34 21q5 0 5 -4q0 -15 -33 -42q-10 -8 -22 -8z" />
    <glyph glyph-name="ograve" unicode="&#xf2;" horiz-adv-x="265" 
d="M50 -2q-16 0 -28.5 6.5t-12.5 28.5q0 35 18 70.5t37 62.5q17 23 38.5 43.5t46.5 35.5q16 10 43.5 21.5t46.5 11.5q16 0 28 -8.5t12 -30.5q0 -34 -17.5 -69.5t-36.5 -62.5q-9 -12 -18 -22.5t-20 -21.5q37 0 68 21.5t54 52.5l2 2q3 0 3 -6q0 -7 -4 -13q-20 -28 -50 -49.5
t-68 -21.5h-8t-8 1q-56 -52 -126 -52zM76 15q14 0 30.5 10t25.5 19q17 17 31 36.5t26 39.5q14 24 28 57t14 62q0 23 -16 23q-13 0 -31.5 -11t-27.5 -20q-34 -35 -57 -76q-13 -23 -28 -54t-15 -57q0 -4 0.5 -7.5t1.5 -7.5q4 -14 18 -14zM280 331q-20 11 -47 26t-49.5 29.5
t-30.5 23.5q-1 2 -2.5 9t-1.5 13q0 9 3 9q5 0 11.5 -4t20.5 -17q27 -23 52.5 -43.5t45.5 -36.5q1 -2 0 -5.5t-2 -3.5z" />
    <glyph glyph-name="oacute" unicode="&#xf3;" horiz-adv-x="265" 
d="M50 -2q-16 0 -28.5 6.5t-12.5 28.5q0 35 18 70.5t37 62.5q17 23 38.5 43.5t46.5 35.5q16 10 43.5 21.5t46.5 11.5q16 0 28 -8.5t12 -30.5q0 -34 -17.5 -69.5t-36.5 -62.5q-9 -12 -18 -22.5t-20 -21.5q37 0 68 21.5t54 52.5l2 2q3 0 3 -6q0 -7 -4 -13q-20 -28 -50 -49.5
t-68 -21.5h-8t-8 1q-56 -52 -126 -52zM76 15q14 0 30.5 10t25.5 19q17 17 31 36.5t26 39.5q14 24 28 57t14 62q0 23 -16 23q-13 0 -31.5 -11t-27.5 -20q-34 -35 -57 -76q-13 -23 -28 -54t-15 -57q0 -4 0.5 -7.5t1.5 -7.5q4 -14 18 -14zM187 330q-1 0 -2 3.5t0 5.5
q20 16 45.5 36.5t52.5 43.5q14 13 21 17t11 4q3 0 3 -9q0 -6 -1 -13t-3 -9q-8 -9 -30.5 -23.5t-49.5 -29.5t-47 -26z" />
    <glyph glyph-name="ocircumflex" unicode="&#xf4;" horiz-adv-x="265" 
d="M50 -2q-16 0 -28.5 6.5t-12.5 28.5q0 35 18 70.5t37 62.5q17 23 38.5 43.5t46.5 35.5q16 10 43.5 21.5t46.5 11.5q16 0 28 -8.5t12 -30.5q0 -34 -17.5 -69.5t-36.5 -62.5q-9 -12 -18 -22.5t-20 -21.5q37 0 68 21.5t54 52.5l2 2q3 0 3 -6q0 -7 -4 -13q-20 -28 -50 -49.5
t-68 -21.5h-8t-8 1q-56 -52 -126 -52zM76 15q14 0 30.5 10t25.5 19q17 17 31 36.5t26 39.5q14 24 28 57t14 62q0 23 -16 23q-13 0 -31.5 -11t-27.5 -20q-34 -35 -57 -76q-13 -23 -28 -54t-15 -57q0 -4 0.5 -7.5t1.5 -7.5q4 -14 18 -14zM320 339q-10 -5 -30 12
q-11 10 -26.5 26t-20.5 21q-5 8 -12 3q-5 -4 -21.5 -15.5t-33.5 -22.5t-26 -16q-12 -6 -20 -2q29 20 58.5 41t54.5 43h12q10 -16 28.5 -36t39.5 -34q4 -2 8 -5t10 -3v-3q-3 -1 -11 -4.5t-10 -4.5z" />
    <glyph glyph-name="otilde" unicode="&#xf5;" horiz-adv-x="265" 
d="M50 -2q-16 0 -28.5 6.5t-12.5 28.5q0 35 18 70.5t37 62.5q17 23 38.5 43.5t46.5 35.5q16 10 43.5 21.5t46.5 11.5q16 0 28 -8.5t12 -30.5q0 -34 -17.5 -69.5t-36.5 -62.5q-9 -12 -18 -22.5t-20 -21.5q37 0 68 21.5t54 52.5l2 2q3 0 3 -6q0 -7 -4 -13q-20 -28 -50 -49.5
t-68 -21.5h-8t-8 1q-56 -52 -126 -52zM76 15q14 0 30.5 10t25.5 19q17 17 31 36.5t26 39.5q14 24 28 57t14 62q0 23 -16 23q-13 0 -31.5 -11t-27.5 -20q-34 -35 -57 -76q-13 -23 -28 -54t-15 -57q0 -4 0.5 -7.5t1.5 -7.5q4 -14 18 -14zM270 337q-16 0 -42 13q-26 14 -39 14
q-15 0 -28 -13t-17 -13q-1 1 -1 2q0 14 35 41q13 10 30 10q12 0 39 -11q24 -10 39 -10q19 0 34 21q5 0 5 -4q0 -15 -33 -42q-10 -8 -22 -8z" />
    <glyph glyph-name="odieresis" unicode="&#xf6;" horiz-adv-x="265" 
d="M50 -2q-16 0 -28.5 6.5t-12.5 28.5q0 35 18 70.5t37 62.5q17 23 38.5 43.5t46.5 35.5q16 10 43.5 21.5t46.5 11.5q16 0 28 -8.5t12 -30.5q0 -34 -17.5 -69.5t-36.5 -62.5q-9 -12 -18 -22.5t-20 -21.5q37 0 68 21.5t54 52.5l2 2q3 0 3 -6q0 -7 -4 -13q-20 -28 -50 -49.5
t-68 -21.5h-8t-8 1q-56 -52 -126 -52zM76 15q14 0 30.5 10t25.5 19q17 17 31 36.5t26 39.5q14 24 28 57t14 62q0 23 -16 23q-13 0 -31.5 -11t-27.5 -20q-34 -35 -57 -76q-13 -23 -28 -54t-15 -57q0 -4 0.5 -7.5t1.5 -7.5q4 -14 18 -14zM180 347q-21 0 -37 22q0 3 12.5 11.5
t16.5 10.5q7 4 10 4q5 -3 14.5 -6.5t18 -5.5t8.5 -3q-1 -4 -6 -10q-29 -23 -37 -23zM296 347q-21 0 -37 22q0 3 12.5 11.5t16.5 10.5q7 4 10 4q5 -3 14.5 -6.5t18 -5.5t8.5 -3q-1 -4 -6 -10q-29 -23 -37 -23z" />
    <glyph glyph-name="divide" unicode="&#xf7;" horiz-adv-x="280" 
d="M213 266q-10 0 -20 7t-16 14q-1 2 8 8.5t19 13t11 5.5q8 -4 16 -8.5t17 -3.5h4q5 0 5 -3t-7 -10q-9 -7 -18.5 -15t-18.5 -8zM302 139q-12 1 -36.5 2t-51 2t-46.5 1q-33 0 -77.5 -0.5t-77.5 -3.5q-3 0 3 8t15 16.5t14 7.5q11 -2 34 -3t48.5 -1t43.5 -1q26 0 59 0.5t62 1.5
t42 1q3 0 -3.5 -8t-15 -15.5t-13.5 -7.5zM141 15q-11 1 -20.5 8t-15.5 14q-1 2 8 8.5t19 13t11 5.5q8 -4 16 -8.5t17 -3.5h3q6 0 6 -3q0 -4 -7 -10q-9 -8 -19 -16t-18 -8z" />
    <glyph glyph-name="oslash" unicode="&#xf8;" horiz-adv-x="265" 
d="M35 -23q6 10 12 21q-16 0 -27 7t-11 28q0 35 18 70.5t37 62.5q17 23 38.5 43.5t46.5 35.5q12 7 31.5 16t37.5 14q12 18 20 29q2 2 13 2q6 0 11 -0.5t4 -1.5q-7 -9 -19 -27q13 -1 22.5 -10t9.5 -28q0 -34 -17.5 -69.5t-36.5 -62.5q-9 -12 -18 -22.5t-20 -21.5
q37 0 68 21.5t54 52.5l2 2q3 0 3 -6q0 -7 -4 -13q-20 -28 -50 -49.5t-68 -21.5h-8t-8 1q-50 -46 -111 -51q-8 -13 -13 -22q-1 -4 -9.5 -4t-7.5 4zM58 29l0.5 -1t2.5 -6q24 41 50.5 84.5t52 84t45.5 70.5q-14 -2 -29.5 -12t-23.5 -18q-34 -35 -57 -76q-13 -23 -28 -54
t-15 -57q0 -4 0.5 -7.5t1.5 -7.5zM76 15q14 0 30.5 10t25.5 19q17 17 31 36.5t26 39.5q14 24 28 57t14 62q0 8 -2 13q-22 -34 -50.5 -77t-56 -85.5t-47.5 -74.5h1z" />
    <glyph glyph-name="ugrave" unicode="&#xf9;" horiz-adv-x="393" 
d="M90 -3q-10 0 -17 4t-7 15q0 14 7.5 33t16.5 38t15 31q12 23 23 46t19 39q8 15 8 20q0 8 -11.5 0t-21.5 -16q-22 -21 -46 -49.5t-37 -45.5q-3 -4 -5 -4t-2 5q0 8 5 15q14 20 33 44t39 46q19 20 39 39t51 19q21 0 21 -16q0 -14 -12 -32q-7 -11 -22 -37t-30.5 -56.5
t-26.5 -56.5t-11 -38q0 -14 14 -14q11 0 27 11.5t33 27.5q31 30 56.5 65.5t44 68.5t29.5 54q2 4 4.5 9.5t8.5 6.5t26 1t37 8h2q3 0 3 -3q0 -8 -13 -12q-12 -4 -27.5 -24t-30.5 -48.5t-27 -58.5t-18 -55t-3 -37q4 -14 14 -14q13 0 36.5 16t48.5 38.5t41 41.5q7 8 13 16t8 10
q1 -1 2 -3.5t1 -4.5q-1 -7 -5 -13.5t-9 -11.5q-19 -25 -45.5 -52.5t-57 -46.5t-62.5 -19q-10 0 -22.5 5t-12.5 22q0 13 7 35.5t15.5 45t14.5 33.5q-13 -19 -31.5 -42.5t-37.5 -41.5q-25 -24 -53.5 -40.5t-58.5 -16.5zM344 331q-20 11 -47 26t-49.5 29.5t-30.5 23.5
q-1 2 -2.5 9t-1.5 13q0 9 3 9q5 0 11.5 -4t20.5 -17q27 -23 52.5 -43.5t45.5 -36.5q1 -2 0 -5.5t-2 -3.5z" />
    <glyph glyph-name="uacute" unicode="&#xfa;" horiz-adv-x="393" 
d="M90 -3q-10 0 -17 4t-7 15q0 14 7.5 33t16.5 38t15 31q12 23 23 46t19 39q8 15 8 20q0 8 -11.5 0t-21.5 -16q-22 -21 -46 -49.5t-37 -45.5q-3 -4 -5 -4t-2 5q0 8 5 15q14 20 33 44t39 46q19 20 39 39t51 19q21 0 21 -16q0 -14 -12 -32q-7 -11 -22 -37t-30.5 -56.5
t-26.5 -56.5t-11 -38q0 -14 14 -14q11 0 27 11.5t33 27.5q31 30 56.5 65.5t44 68.5t29.5 54q2 4 4.5 9.5t8.5 6.5t26 1t37 8h2q3 0 3 -3q0 -8 -13 -12q-12 -4 -27.5 -24t-30.5 -48.5t-27 -58.5t-18 -55t-3 -37q4 -14 14 -14q13 0 36.5 16t48.5 38.5t41 41.5q7 8 13 16t8 10
q1 -1 2 -3.5t1 -4.5q-1 -7 -5 -13.5t-9 -11.5q-19 -25 -45.5 -52.5t-57 -46.5t-62.5 -19q-10 0 -22.5 5t-12.5 22q0 13 7 35.5t15.5 45t14.5 33.5q-13 -19 -31.5 -42.5t-37.5 -41.5q-25 -24 -53.5 -40.5t-58.5 -16.5zM251 330q-1 0 -2 3.5t0 5.5q20 16 45.5 36.5t52.5 43.5
q14 13 21 17t11 4q3 0 3 -9q0 -6 -1 -13t-3 -9q-8 -9 -30.5 -23.5t-49.5 -29.5t-47 -26z" />
    <glyph glyph-name="ucircumflex" unicode="&#xfb;" horiz-adv-x="393" 
d="M90 -3q-10 0 -17 4t-7 15q0 14 7.5 33t16.5 38t15 31q12 23 23 46t19 39q8 15 8 20q0 8 -11.5 0t-21.5 -16q-22 -21 -46 -49.5t-37 -45.5q-3 -4 -5 -4t-2 5q0 8 5 15q14 20 33 44t39 46q19 20 39 39t51 19q21 0 21 -16q0 -14 -12 -32q-7 -11 -22 -37t-30.5 -56.5
t-26.5 -56.5t-11 -38q0 -14 14 -14q11 0 27 11.5t33 27.5q31 30 56.5 65.5t44 68.5t29.5 54q2 4 4.5 9.5t8.5 6.5t26 1t37 8h2q3 0 3 -3q0 -8 -13 -12q-12 -4 -27.5 -24t-30.5 -48.5t-27 -58.5t-18 -55t-3 -37q4 -14 14 -14q13 0 36.5 16t48.5 38.5t41 41.5q7 8 13 16t8 10
q1 -1 2 -3.5t1 -4.5q-1 -7 -5 -13.5t-9 -11.5q-19 -25 -45.5 -52.5t-57 -46.5t-62.5 -19q-10 0 -22.5 5t-12.5 22q0 13 7 35.5t15.5 45t14.5 33.5q-13 -19 -31.5 -42.5t-37.5 -41.5q-25 -24 -53.5 -40.5t-58.5 -16.5zM384 339q-10 -5 -30 12q-11 10 -26.5 26t-20.5 21
q-5 8 -12 3q-5 -4 -21.5 -15.5t-33.5 -22.5t-26 -16q-12 -6 -20 -2q29 20 58.5 41t54.5 43h12q10 -16 28.5 -36t39.5 -34q4 -2 8 -5t10 -3v-3q-3 -1 -11 -4.5t-10 -4.5z" />
    <glyph glyph-name="udieresis" unicode="&#xfc;" horiz-adv-x="393" 
d="M90 -3q-10 0 -17 4t-7 15q0 14 7.5 33t16.5 38t15 31q12 23 23 46t19 39q8 15 8 20q0 8 -11.5 0t-21.5 -16q-22 -21 -46 -49.5t-37 -45.5q-3 -4 -5 -4t-2 5q0 8 5 15q14 20 33 44t39 46q19 20 39 39t51 19q21 0 21 -16q0 -14 -12 -32q-7 -11 -22 -37t-30.5 -56.5
t-26.5 -56.5t-11 -38q0 -14 14 -14q11 0 27 11.5t33 27.5q31 30 56.5 65.5t44 68.5t29.5 54q2 4 4.5 9.5t8.5 6.5t26 1t37 8h2q3 0 3 -3q0 -8 -13 -12q-12 -4 -27.5 -24t-30.5 -48.5t-27 -58.5t-18 -55t-3 -37q4 -14 14 -14q13 0 36.5 16t48.5 38.5t41 41.5q7 8 13 16t8 10
q1 -1 2 -3.5t1 -4.5q-1 -7 -5 -13.5t-9 -11.5q-19 -25 -45.5 -52.5t-57 -46.5t-62.5 -19q-10 0 -22.5 5t-12.5 22q0 13 7 35.5t15.5 45t14.5 33.5q-13 -19 -31.5 -42.5t-37.5 -41.5q-25 -24 -53.5 -40.5t-58.5 -16.5zM244 347q-21 0 -37 22q0 3 12.5 11.5t16.5 10.5
q7 4 10 4q5 -3 14.5 -6.5t18 -5.5t8.5 -3q-1 -4 -6 -10q-29 -23 -37 -23zM360 347q-21 0 -37 22q0 3 12.5 11.5t16.5 10.5q7 4 10 4q5 -3 14.5 -6.5t18 -5.5t8.5 -3q-1 -4 -6 -10q-29 -23 -37 -23z" />
    <glyph glyph-name="yacute" unicode="&#xfd;" horiz-adv-x="344" 
d="M-69 -350q-38 0 -73.5 17.5t-52.5 53.5q-6 13 -8 27.5t-2 28.5v11q0 8 2 14.5t10 6.5q2 0 2 -2q0 -6 -1 -12t-1 -13q0 -46 29.5 -70t73.5 -24q18 0 37 4t36 11q63 27 109.5 76.5t81.5 111.5t63 126q16 38 28.5 74t22.5 65q-10 -14 -26 -34t-32 -38.5t-28 -29.5
q-25 -24 -53.5 -40.5t-58.5 -16.5q-10 0 -17 4t-7 15q0 14 7.5 33t16.5 38t15 31q12 23 23 46t19 39q8 15 8 20q0 8 -11.5 0t-21.5 -16q-22 -21 -46 -49.5t-37 -45.5q-3 -4 -5 -4t-2 5q0 8 5 15q14 20 33 44t39 46q19 20 39 39t51 19q21 0 21 -16q0 -14 -12 -32
q-7 -11 -22 -37t-30.5 -56.5t-26.5 -56.5t-11 -38q0 -14 14 -14q11 0 27 11.5t33 27.5q29 28 53.5 62t42.5 65q3 5 10.5 18t16 25t13.5 14t20 11t30 12q14 3 21 3q11 0 11 -6q0 -8 -9 -8q-11 0 -20 -5.5t-14 -13.5q-9 -13 -25.5 -47t-36 -78.5t-38.5 -90t-35 -83.5
q-24 -57 -55 -111.5t-72.5 -98t-98.5 -68.5q-34 -15 -75 -15zM254 330q-1 0 -2 3.5t0 5.5q20 16 45.5 36.5t52.5 43.5q14 13 21 17t11 4q3 0 3 -9q0 -6 -1 -13t-3 -9q-8 -9 -30.5 -23.5t-49.5 -29.5t-47 -26z" />
    <glyph glyph-name="thorn" unicode="&#xfe;" horiz-adv-x="364" 
d="M-192 -331q-16 0 -16 7q0 5 4 9q14 16 34.5 49.5t44 76.5t47.5 88.5t44.5 86.5t33.5 69q24 51 51 106.5t54.5 109t52.5 95.5q38 64 83 123t94 93q10 8 33.5 12t41.5 4q22 0 22 -4q0 -6 -33 -14q-30 -8 -63.5 -38.5t-67 -75.5t-64.5 -97t-57.5 -103t-45.5 -94v-2t1 -2
t16.5 15.5t39 36.5t49.5 36.5t48 15.5q11 0 14 -7.5t3 -16.5v-9q-5 -37 -25.5 -80t-52 -81.5t-70 -62.5t-80.5 -24q-12 0 -26 3q-13 -28 -31 -66.5t-39.5 -81.5t-45 -84.5t-47.5 -74.5q-6 -8 -20.5 -13t-26.5 -5zM60 8q16 0 34.5 12.5t28.5 22.5q12 11 29 34.5t33 51.5
t27 54t11 42q0 5 -2 9t-7 4q-9 0 -23.5 -11t-31 -26.5t-30 -30t-19.5 -21.5q-11 -12 -28 -35t-30.5 -46.5t-13.5 -39.5q0 -20 22 -20z" />
    <glyph glyph-name="ydieresis" unicode="&#xff;" horiz-adv-x="344" 
d="M-69 -350q-38 0 -73.5 17.5t-52.5 53.5q-6 13 -8 27.5t-2 28.5v11q0 8 2 14.5t10 6.5q2 0 2 -2q0 -6 -1 -12t-1 -13q0 -46 29.5 -70t73.5 -24q18 0 37 4t36 11q63 27 109.5 76.5t81.5 111.5t63 126q16 38 28.5 74t22.5 65q-10 -14 -26 -34t-32 -38.5t-28 -29.5
q-25 -24 -53.5 -40.5t-58.5 -16.5q-10 0 -17 4t-7 15q0 14 7.5 33t16.5 38t15 31q12 23 23 46t19 39q8 15 8 20q0 8 -11.5 0t-21.5 -16q-22 -21 -46 -49.5t-37 -45.5q-3 -4 -5 -4t-2 5q0 8 5 15q14 20 33 44t39 46q19 20 39 39t51 19q21 0 21 -16q0 -14 -12 -32
q-7 -11 -22 -37t-30.5 -56.5t-26.5 -56.5t-11 -38q0 -14 14 -14q11 0 27 11.5t33 27.5q29 28 53.5 62t42.5 65q3 5 10.5 18t16 25t13.5 14t20 11t30 12q14 3 21 3q11 0 11 -6q0 -8 -9 -8q-11 0 -20 -5.5t-14 -13.5q-9 -13 -25.5 -47t-36 -78.5t-38.5 -90t-35 -83.5
q-24 -57 -55 -111.5t-72.5 -98t-98.5 -68.5q-34 -15 -75 -15zM247 347q-21 0 -37 22q0 3 12.5 11.5t16.5 10.5q7 4 10 4q5 -3 14.5 -6.5t18 -5.5t8.5 -3q-1 -4 -6 -10q-29 -23 -37 -23zM363 347q-21 0 -37 22q0 3 12.5 11.5t16.5 10.5q7 4 10 4q5 -3 14.5 -6.5t18 -5.5
t8.5 -3q-1 -4 -6 -10q-29 -23 -37 -23z" />
    <glyph glyph-name="Amacron" unicode="&#x100;" horiz-adv-x="768" 
d="M87 -25q-31 0 -50.5 18t-15.5 54q1 13 6.5 27.5t12.5 28.5q6 14 12 14q5 0 1 -8q-13 -27 -13 -48q0 -22 15.5 -33t40.5 -11q49 0 108 31.5t122 81t121 103.5q-39 2 -73 4t-60 2q-22 0 -53 -4t-48 -21q-7 -7 -12.5 -20.5t-5.5 -27.5q0 -4 0.5 -7.5t1.5 -7.5
q-4 2 -14.5 3.5t-13.5 12.5q-1 3 -1 10q0 16 12 26.5t29 18.5t31 14q33 14 68 23t71 9q41 0 102 -3q47 46 87 87t65 68q35 37 74.5 63.5t80.5 37.5h-55q-35 0 -76 -3t-77 -13t-60 -30q-15 -13 -22.5 -29.5t-7.5 -30.5q0 -19 11 -26q1 0 1 -0.5v-0.5q0 -3 -7 -6.5t-10 -1.5
q-10 7 -17.5 28.5t-5.5 34.5q5 31 27.5 50.5t56 30.5t71 15t72 5t58.5 1h109q2 0 1 -1q25 11 52.5 22t47.5 11q5 0 10.5 -3t5.5 -6q0 -5 -20 -5q-10 0 -20.5 -3.5t-27.5 -21.5q-14 -14 -35 -45t-46 -72.5t-50 -88t-48 -91.5t-40 -83q-2 -6 -11 -27.5t-17 -47t-8 -45.5
q0 -27 19 -27q9 0 18 4q13 5 27 15t27 23q26 25 44 48.5t22 28.5q3 5 7 5t4 -5q0 -3 -3 -8q-7 -10 -26 -34.5t-44.5 -49.5t-54.5 -38q-9 -4 -19 -6.5t-20 -2.5q-20 0 -36.5 14t-16.5 46q0 29 11.5 62.5t21.5 54.5q20 43 47.5 96t57 106t54.5 96t41 64q-16 0 -43 -12.5
t-57.5 -33t-56.5 -47.5q-31 -32 -71.5 -78t-87.5 -96q23 -1 46 -1.5t46 -0.5q16 0 35.5 3.5t36.5 11.5l-5.5 -10.5t-18 -21t-33.5 -12.5q-19 -1 -38 -1.5t-38 -0.5h-31.5t-30.5 1q-46 -48 -96 -93.5t-101 -82.5t-101.5 -58.5t-98.5 -21.5zM776 644q-4 0 -9.5 7t-4.5 11l1 2
q8 2 24.5 3t33.5 1.5t25 0.5q10 0 28 -1t35.5 -3t24.5 -5q1 -1 2 -1t1 -1q-2 -5 -7 -5q-38 0 -77 -4.5t-77 -4.5z" />
    <glyph glyph-name="amacron" unicode="&#x101;" horiz-adv-x="294" 
d="M170 -3q-10 0 -17 4t-7 15q0 14 7 32t16 35.5t16 28.5q-35 -37 -73 -70q-19 -16 -42 -30t-49 -14q-10 0 -14 6.5t-4 15.5q0 5 1 7q5 39 25 81t49 79t59 60q34 26 75 26h115q5 0 5 -4q0 -8 -9 -8q-10 0 -20 -12.5t-15 -20.5q-7 -11 -22 -37t-30.5 -56.5t-26.5 -56.5
t-11 -38q0 -14 14 -14q15 0 34 14t38.5 34.5t36 41t26.5 32.5q6 -6 -0.5 -16.5t-11.5 -16.5q-20 -26 -46 -53.5t-56.5 -46t-62.5 -18.5zM62 32q12 0 33.5 17.5t46.5 44t47 56t36.5 54t14.5 37.5q0 11 -6.5 15t-16.5 4q-16 0 -34.5 -11.5t-29.5 -22.5q-12 -11 -28.5 -34.5
t-32.5 -51.5t-27 -54t-11 -42q0 -12 8 -12zM166 340q-4 0 -9.5 7t-4.5 11l1 2q8 2 24.5 3t33.5 1.5t25 0.5q10 0 28 -1t35.5 -3t24.5 -5q1 -1 2 -1t1 -1q-2 -5 -7 -5q-38 0 -77 -4.5t-77 -4.5z" />
    <glyph glyph-name="Abreve" unicode="&#x102;" horiz-adv-x="768" 
d="M87 -25q-31 0 -50.5 18t-15.5 54q1 13 6.5 27.5t12.5 28.5q6 14 12 14q5 0 1 -8q-13 -27 -13 -48q0 -22 15.5 -33t40.5 -11q49 0 108 31.5t122 81t121 103.5q-39 2 -73 4t-60 2q-22 0 -53 -4t-48 -21q-7 -7 -12.5 -20.5t-5.5 -27.5q0 -4 0.5 -7.5t1.5 -7.5
q-4 2 -14.5 3.5t-13.5 12.5q-1 3 -1 10q0 16 12 26.5t29 18.5t31 14q33 14 68 23t71 9q41 0 102 -3q47 46 87 87t65 68q35 37 74.5 63.5t80.5 37.5h-55q-35 0 -76 -3t-77 -13t-60 -30q-15 -13 -22.5 -29.5t-7.5 -30.5q0 -19 11 -26q1 0 1 -0.5v-0.5q0 -3 -7 -6.5t-10 -1.5
q-10 7 -17.5 28.5t-5.5 34.5q5 31 27.5 50.5t56 30.5t71 15t72 5t58.5 1h109q2 0 1 -1q25 11 52.5 22t47.5 11q5 0 10.5 -3t5.5 -6q0 -5 -20 -5q-10 0 -20.5 -3.5t-27.5 -21.5q-14 -14 -35 -45t-46 -72.5t-50 -88t-48 -91.5t-40 -83q-2 -6 -11 -27.5t-17 -47t-8 -45.5
q0 -27 19 -27q9 0 18 4q13 5 27 15t27 23q26 25 44 48.5t22 28.5q3 5 7 5t4 -5q0 -3 -3 -8q-7 -10 -26 -34.5t-44.5 -49.5t-54.5 -38q-9 -4 -19 -6.5t-20 -2.5q-20 0 -36.5 14t-16.5 46q0 29 11.5 62.5t21.5 54.5q20 43 47.5 96t57 106t54.5 96t41 64q-16 0 -43 -12.5
t-57.5 -33t-56.5 -47.5q-31 -32 -71.5 -78t-87.5 -96q23 -1 46 -1.5t46 -0.5q16 0 35.5 3.5t36.5 11.5l-5.5 -10.5t-18 -21t-33.5 -12.5q-19 -1 -38 -1.5t-38 -0.5h-31.5t-30.5 1q-46 -48 -96 -93.5t-101 -82.5t-101.5 -58.5t-98.5 -21.5zM837 634q-28 0 -45 14.5t-26 39.5
q-4 11 -1 21q1 4 3.5 8t3.5 4q2 0 3 -3.5t4 -8.5q11 -25 29 -35.5t38 -10.5q22 0 43 11t40 36q5 7 12 7q6 0 0 -11q-23 -38 -50 -55t-54 -17z" />
    <glyph glyph-name="abreve" unicode="&#x103;" horiz-adv-x="294" 
d="M170 -3q-10 0 -17 4t-7 15q0 14 7 32t16 35.5t16 28.5q-35 -37 -73 -70q-19 -16 -42 -30t-49 -14q-10 0 -14 6.5t-4 15.5q0 5 1 7q5 39 25 81t49 79t59 60q34 26 75 26h115q5 0 5 -4q0 -8 -9 -8q-10 0 -20 -12.5t-15 -20.5q-7 -11 -22 -37t-30.5 -56.5t-26.5 -56.5
t-11 -38q0 -14 14 -14q15 0 34 14t38.5 34.5t36 41t26.5 32.5q6 -6 -0.5 -16.5t-11.5 -16.5q-20 -26 -46 -53.5t-56.5 -46t-62.5 -18.5zM62 32q12 0 33.5 17.5t46.5 44t47 56t36.5 54t14.5 37.5q0 11 -6.5 15t-16.5 4q-16 0 -34.5 -11.5t-29.5 -22.5q-12 -11 -28.5 -34.5
t-32.5 -51.5t-27 -54t-11 -42q0 -12 8 -12zM233 329q-28 0 -45 14.5t-26 39.5q-4 11 -1 21q1 4 3.5 8t3.5 4q2 0 3 -3.5t4 -8.5q11 -25 29 -35.5t38 -10.5q22 0 43 11t40 36q5 7 12 7q6 0 0 -11q-23 -38 -50 -55t-54 -17z" />
    <glyph glyph-name="Aogonek" unicode="&#x104;" horiz-adv-x="768" 
d="M87 -25q-31 0 -50.5 18t-15.5 54q1 13 6.5 27.5t12.5 28.5q6 14 12 14q5 0 1 -8q-13 -27 -13 -48q0 -22 15.5 -33t40.5 -11q49 0 108 31.5t122 81t121 103.5q-39 2 -73 4t-60 2q-22 0 -53 -4t-48 -21q-7 -7 -12.5 -20.5t-5.5 -27.5q0 -4 0.5 -7.5t1.5 -7.5
q-4 2 -14.5 3.5t-13.5 12.5q-1 3 -1 10q0 16 12 26.5t29 18.5t31 14q33 14 68 23t71 9q41 0 102 -3q47 46 87 87t65 68q35 37 74.5 63.5t80.5 37.5h-55q-35 0 -76 -3t-77 -13t-60 -30q-15 -13 -22.5 -29.5t-7.5 -30.5q0 -19 11 -26q1 0 1 -0.5v-0.5q0 -3 -7 -6.5t-10 -1.5
q-10 7 -17.5 28.5t-5.5 34.5q5 31 27.5 50.5t56 30.5t71 15t72 5t58.5 1h109q2 0 1 -1q25 11 52.5 22t47.5 11q5 0 10.5 -3t5.5 -6q0 -5 -20 -5q-10 0 -20.5 -3.5t-27.5 -21.5q-14 -14 -35 -45t-46 -72.5t-50 -88t-48 -91.5t-40 -83q-2 -6 -11 -27.5t-17 -47t-8 -45.5
q0 -27 19 -27q9 0 18 4q13 5 27 15t27 23q26 25 44 48.5t22 28.5q3 5 7 5t4 -5q0 -3 -3 -8q-7 -10 -26 -34.5t-44.5 -49.5t-54.5 -38q-9 -4 -19 -6.5t-20 -2.5q-20 0 -36.5 14t-16.5 46q0 29 11.5 62.5t21.5 54.5q20 43 47.5 96t57 106t54.5 96t41 64q-16 0 -43 -12.5
t-57.5 -33t-56.5 -47.5q-31 -32 -71.5 -78t-87.5 -96q23 -1 46 -1.5t46 -0.5q16 0 35.5 3.5t36.5 11.5l-5.5 -10.5t-18 -21t-33.5 -12.5q-19 -1 -38 -1.5t-38 -0.5h-31.5t-30.5 1q-46 -48 -96 -93.5t-101 -82.5t-101.5 -58.5t-98.5 -21.5zM592 -176q-14 0 -18.5 9.5
t-4.5 22.5q0 23 13 53t31.5 56t32.5 35h21q-12 -6 -23.5 -25.5t-19.5 -44t-8 -44.5q0 -9 3.5 -16.5t13.5 -7.5q5 0 14 3q17 7 36.5 25.5t34.5 31.5q1 1 1 -1q0 -3 -2 -10t-4 -9q-12 -17 -38.5 -38t-55.5 -33q-17 -7 -27 -7z" />
    <glyph glyph-name="aogonek" unicode="&#x105;" horiz-adv-x="294" 
d="M170 -3q-10 0 -17 4t-7 15q0 14 7 32t16 35.5t16 28.5q-35 -37 -73 -70q-19 -16 -42 -30t-49 -14q-10 0 -14 6.5t-4 15.5q0 5 1 7q5 39 25 81t49 79t59 60q34 26 75 26h115q5 0 5 -4q0 -8 -9 -8q-10 0 -20 -12.5t-15 -20.5q-7 -11 -22 -37t-30.5 -56.5t-26.5 -56.5
t-11 -38q0 -14 14 -14q15 0 34 14t38.5 34.5t36 41t26.5 32.5q6 -6 -0.5 -16.5t-11.5 -16.5q-20 -26 -46 -53.5t-56.5 -46t-62.5 -18.5zM62 32q12 0 33.5 17.5t46.5 44t47 56t36.5 54t14.5 37.5q0 11 -6.5 15t-16.5 4q-16 0 -34.5 -11.5t-29.5 -22.5q-12 -11 -28.5 -34.5
t-32.5 -51.5t-27 -54t-11 -42q0 -12 8 -12zM121 -166q-14 0 -18.5 9.5t-4.5 22.5q0 23 13 53t31.5 56t32.5 35h21q-12 -6 -23.5 -25.5t-19.5 -44t-8 -44.5q0 -9 3.5 -16.5t13.5 -7.5q5 0 14 3q17 7 36.5 25.5t34.5 31.5q1 1 1 -1q0 -3 -2 -10t-4 -9q-12 -17 -38.5 -38
t-55.5 -33q-17 -7 -27 -7z" />
    <glyph glyph-name="Cacute" unicode="&#x106;" horiz-adv-x="527" 
d="M248 -29q-53 0 -101.5 15.5t-78.5 51.5t-30 97q0 65 25 127t67 115.5t94 92.5q46 35 106.5 57t120.5 22q25 0 47 -3.5t45 -14.5q20 -9 32 -22.5t12 -30.5v-5t-1 -5q-4 -16 -18.5 -36.5t-22.5 -42.5q-1 -4 -11 -6.5t-8 1.5q8 13 12.5 32t4.5 38q0 14 -2.5 26.5t-8.5 21.5
q-10 18 -31 25t-45 7q-23 0 -46 -5t-40 -11q-58 -21 -111 -66q-47 -41 -83.5 -95t-57.5 -111t-21 -109q0 -53 23 -84t60 -44t80 -13q38 0 75.5 8t68.5 20q53 20 95.5 49t79.5 75q5 5 7 5q3 0 3 -4q0 -8 -8 -19q-34 -46 -77 -77t-92 -51q-33 -13 -76.5 -22t-87.5 -9zM409 619
q-6 2 -4 9q23 12 46.5 24.5t55.5 29.5q11 6 24 13t17 6q2 -1 4 -3.5t1 -6.5q-2 -17 -10 -21q-12 -7 -36.5 -16.5t-51.5 -19t-46 -15.5z" />
    <glyph glyph-name="cacute" unicode="&#x107;" horiz-adv-x="238" 
d="M76 -8q-37 0 -52 14t-15 36q0 29 19 64.5t36 59.5q17 23 38.5 43.5t46.5 35.5q16 10 43.5 21.5t46.5 11.5q23 0 32 -10.5t9 -25.5q0 -12 -4 -24.5t-9 -23.5q-3 -6 -9 -8.5t-6 1.5q0 5 1 9t1 9q0 19 -8.5 37.5t-25.5 18.5q-18 0 -39 -12.5t-29 -21.5q-26 -27 -50.5 -67
t-35.5 -76q-7 -21 -7 -36q0 -17 9 -24t22 -7q10 0 21.5 3t24.5 7q30 10 60.5 31.5t55.5 46t38 42.5q2 -2 2 -6q0 -5 -4 -11.5t-6 -10.5q-21 -28 -55 -57.5t-73.5 -49.5t-77.5 -20zM192 335q-1 0 -2 3.5t0 5.5q20 16 45.5 36.5t52.5 43.5q14 13 21 17t11 4q3 0 3 -9
q0 -6 -1 -13t-3 -9q-8 -9 -30.5 -23.5t-49.5 -29.5t-47 -26z" />
    <glyph glyph-name="Ccircumflex" unicode="&#x108;" horiz-adv-x="527" 
d="M248 -29q-53 0 -101.5 15.5t-78.5 51.5t-30 97q0 65 25 127t67 115.5t94 92.5q46 35 106.5 57t120.5 22q25 0 47 -3.5t45 -14.5q20 -9 32 -22.5t12 -30.5v-5t-1 -5q-4 -16 -18.5 -36.5t-22.5 -42.5q-1 -4 -11 -6.5t-8 1.5q8 13 12.5 32t4.5 38q0 14 -2.5 26.5t-8.5 21.5
q-10 18 -31 25t-45 7q-23 0 -46 -5t-40 -11q-58 -21 -111 -66q-47 -41 -83.5 -95t-57.5 -111t-21 -109q0 -53 23 -84t60 -44t80 -13q38 0 75.5 8t68.5 20q53 20 95.5 49t79.5 75q5 5 7 5q3 0 3 -4q0 -8 -8 -19q-34 -46 -77 -77t-92 -51q-33 -13 -76.5 -22t-87.5 -9zM552 615
q-10 -5 -30 12q-11 10 -26.5 26t-20.5 21q-5 8 -12 3q-5 -4 -21.5 -15.5t-33.5 -22.5t-26 -16q-12 -6 -20 -2q29 20 58.5 41t54.5 43h12q10 -16 28.5 -36t39.5 -34q4 -2 8 -5t10 -3v-3q-3 -1 -11 -4.5t-10 -4.5z" />
    <glyph glyph-name="ccircumflex" unicode="&#x109;" horiz-adv-x="238" 
d="M76 -8q-37 0 -52 14t-15 36q0 29 19 64.5t36 59.5q17 23 38.5 43.5t46.5 35.5q16 10 43.5 21.5t46.5 11.5q23 0 32 -10.5t9 -25.5q0 -12 -4 -24.5t-9 -23.5q-3 -6 -9 -8.5t-6 1.5q0 5 1 9t1 9q0 19 -8.5 37.5t-25.5 18.5q-18 0 -39 -12.5t-29 -21.5q-26 -27 -50.5 -67
t-35.5 -76q-7 -21 -7 -36q0 -17 9 -24t22 -7q10 0 21.5 3t24.5 7q30 10 60.5 31.5t55.5 46t38 42.5q2 -2 2 -6q0 -5 -4 -11.5t-6 -10.5q-21 -28 -55 -57.5t-73.5 -49.5t-77.5 -20zM325 344q-10 -5 -30 12q-11 10 -26.5 26t-20.5 21q-5 8 -12 3q-5 -4 -21.5 -15.5
t-33.5 -22.5t-26 -16q-12 -6 -20 -2q29 20 58.5 41t54.5 43h12q10 -16 28.5 -36t39.5 -34q4 -2 8 -5t10 -3v-3q-3 -1 -11 -4.5t-10 -4.5z" />
    <glyph glyph-name="Cdotaccent" unicode="&#x10a;" horiz-adv-x="527" 
d="M248 -29q-53 0 -101.5 15.5t-78.5 51.5t-30 97q0 65 25 127t67 115.5t94 92.5q46 35 106.5 57t120.5 22q25 0 47 -3.5t45 -14.5q20 -9 32 -22.5t12 -30.5v-5t-1 -5q-4 -16 -18.5 -36.5t-22.5 -42.5q-1 -4 -11 -6.5t-8 1.5q8 13 12.5 32t4.5 38q0 14 -2.5 26.5t-8.5 21.5
q-10 18 -31 25t-45 7q-23 0 -46 -5t-40 -11q-58 -21 -111 -66q-47 -41 -83.5 -95t-57.5 -111t-21 -109q0 -53 23 -84t60 -44t80 -13q38 0 75.5 8t68.5 20q53 20 95.5 49t79.5 75q5 5 7 5q3 0 3 -4q0 -8 -8 -19q-34 -46 -77 -77t-92 -51q-33 -13 -76.5 -22t-87.5 -9zM458 612
q-10 0 -20.5 7.5t-16.5 14.5q-1 2 8 8.5t19.5 12.5t11.5 5q8 -4 16 -8.5t17 -3.5h4q5 0 5 -3t-7 -10q-9 -7 -18.5 -15t-18.5 -8z" />
    <glyph glyph-name="cdotaccent" unicode="&#x10b;" horiz-adv-x="238" 
d="M76 -8q-37 0 -52 14t-15 36q0 29 19 64.5t36 59.5q17 23 38.5 43.5t46.5 35.5q16 10 43.5 21.5t46.5 11.5q23 0 32 -10.5t9 -25.5q0 -12 -4 -24.5t-9 -23.5q-3 -6 -9 -8.5t-6 1.5q0 5 1 9t1 9q0 19 -8.5 37.5t-25.5 18.5q-18 0 -39 -12.5t-29 -21.5q-26 -27 -50.5 -67
t-35.5 -76q-7 -21 -7 -36q0 -17 9 -24t22 -7q10 0 21.5 3t24.5 7q30 10 60.5 31.5t55.5 46t38 42.5q2 -2 2 -6q0 -5 -4 -11.5t-6 -10.5q-21 -28 -55 -57.5t-73.5 -49.5t-77.5 -20zM236 341q-10 0 -20.5 7.5t-16.5 14.5q-1 2 8 8.5t19.5 12.5t11.5 5q8 -4 16 -8.5t17 -3.5h4
q5 0 5 -3t-7 -10q-9 -7 -18.5 -15t-18.5 -8z" />
    <glyph glyph-name="Ccaron" unicode="&#x10c;" horiz-adv-x="527" 
d="M248 -29q-53 0 -101.5 15.5t-78.5 51.5t-30 97q0 65 25 127t67 115.5t94 92.5q46 35 106.5 57t120.5 22q25 0 47 -3.5t45 -14.5q20 -9 32 -22.5t12 -30.5v-5t-1 -5q-4 -16 -18.5 -36.5t-22.5 -42.5q-1 -4 -11 -6.5t-8 1.5q8 13 12.5 32t4.5 38q0 14 -2.5 26.5t-8.5 21.5
q-10 18 -31 25t-45 7q-23 0 -46 -5t-40 -11q-58 -21 -111 -66q-47 -41 -83.5 -95t-57.5 -111t-21 -109q0 -53 23 -84t60 -44t80 -13q38 0 75.5 8t68.5 20q53 20 95.5 49t79.5 75q5 5 7 5q3 0 3 -4q0 -8 -8 -19q-34 -46 -77 -77t-92 -51q-33 -13 -76.5 -22t-87.5 -9zM454 613
q-10 17 -28.5 36.5t-39.5 33.5q-4 2 -8 5t-10 3v3q3 1 11.5 4.5t9.5 4.5q7 3 15.5 -1.5t16 -11t10.5 -9.5q11 -10 21.5 -21.5t17.5 -20.5q0 -3 6 0q6 6 23.5 18.5t36.5 24.5t29 15q4 2 7.5 1.5t6.5 -1.5q-29 -19 -58 -40t-55 -44h-12z" />
    <glyph glyph-name="ccaron" unicode="&#x10d;" horiz-adv-x="238" 
d="M76 -8q-37 0 -52 14t-15 36q0 29 19 64.5t36 59.5q17 23 38.5 43.5t46.5 35.5q16 10 43.5 21.5t46.5 11.5q23 0 32 -10.5t9 -25.5q0 -12 -4 -24.5t-9 -23.5q-3 -6 -9 -8.5t-6 1.5q0 5 1 9t1 9q0 19 -8.5 37.5t-25.5 18.5q-18 0 -39 -12.5t-29 -21.5q-26 -27 -50.5 -67
t-35.5 -76q-7 -21 -7 -36q0 -17 9 -24t22 -7q10 0 21.5 3t24.5 7q30 10 60.5 31.5t55.5 46t38 42.5q2 -2 2 -6q0 -5 -4 -11.5t-6 -10.5q-21 -28 -55 -57.5t-73.5 -49.5t-77.5 -20zM232 342q-10 17 -28.5 36.5t-39.5 33.5q-4 2 -8 5t-10 3v3q3 1 11.5 4.5t9.5 4.5
q7 3 15.5 -1.5t16 -11t10.5 -9.5q11 -10 21.5 -21.5t17.5 -20.5q0 -3 6 0q6 6 23.5 18.5t36.5 24.5t29 15q4 2 7.5 1.5t6.5 -1.5q-29 -19 -58 -40t-55 -44h-12z" />
    <glyph glyph-name="Dcaron" unicode="&#x10e;" horiz-adv-x="626" 
d="M10 -19q-2 0 -7 1.5t-5 4.5q0 1 1 2l1 1q7 2 6.5 2t-0.5 -0.5t7 1.5q17 6 29.5 17.5t21.5 27.5q47 78 90 158.5t86 160.5q12 21 23 43l22 44q5 12 10.5 24t12.5 23q8 14 25.5 24.5t33.5 15.5h-24q-20 0 -54.5 -2.5t-72.5 -8.5t-67.5 -18t-40.5 -32q-10 -18 -10 -35
q0 -20 9 -27t9 -9t-3 -4t-5 -2q-6 0 -15 12t-16.5 26.5t-9.5 19.5q-3 11 -3 22q0 27 18.5 41.5t45.5 20.5t54.5 7.5t45.5 1.5q50 0 100 2.5t99 2.5q47 0 92.5 -6.5t82.5 -25.5t59.5 -54t22.5 -92q0 -52 -19.5 -106.5t-48.5 -97.5q-122 -183 -342 -183q-34 0 -69.5 7
t-66.5 23q-7 4 -14.5 6.5t-15.5 2.5q-17 0 -34 -10.5t-33 -21t-31 -10.5zM262 -2q75 0 140 29t114 81.5t77 120.5q13 32 21.5 67t8.5 69q0 78 -47.5 120.5t-124.5 42.5q-19 0 -39.5 -4t-33.5 -19q-13 -16 -24.5 -35t-22.5 -37q-23 -40 -43.5 -82.5t-41.5 -83.5
q-33 -63 -65 -127q-7 -14 -14.5 -28.5t-14.5 -28.5q-2 -5 -4 -10.5t-2 -12.5q0 -13 8 -22t17 -17q19 -14 44 -18.5t47 -4.5zM469 608q-10 17 -28.5 36.5t-39.5 33.5q-4 2 -8 5t-10 3v3q3 1 11.5 4.5t9.5 4.5q7 3 15.5 -1.5t16 -11t10.5 -9.5q11 -10 21.5 -21.5t17.5 -20.5
q0 -3 6 0q6 6 23.5 18.5t36.5 24.5t29 15q4 2 7.5 1.5t6.5 -1.5q-29 -19 -58 -40t-55 -44h-12z" />
    <glyph glyph-name="dcaron" unicode="&#x10f;" horiz-adv-x="294" 
d="M170 -3q-10 0 -17 4t-7 15q0 14 7 32t16 35.5t16 28.5q-35 -37 -73 -70q-19 -16 -42 -30t-49 -14q-10 0 -14 6.5t-4 15.5q0 5 1 7q5 39 25 81t49 79t59 60q23 17 44 21.5t46 4.5h33q16 27 33.5 60.5t35 66.5t32.5 58q41 70 90.5 112t110.5 42q13 0 24 -7.5t10 -22.5
l-2 -36q0 -1 -2 -2.5t-3 -1.5t-3 2q-3 18 -18 27.5t-37 9.5q-7 0 -15.5 -1t-16.5 -4q-28 -10 -53 -40.5t-54 -80.5q-10 -19 -26 -49.5t-33.5 -65.5t-33 -68t-26.5 -56q-5 -12 -17 -36.5t-25.5 -53t-23 -52.5t-9.5 -34q0 -14 12 -14t32 14.5t41.5 36t39 41.5t24.5 30
q3 -3 3 -7q0 -7 -5.5 -14t-9.5 -12q-18 -24 -44.5 -51.5t-57.5 -47t-63 -19.5zM62 32q12 0 33.5 17.5t46.5 44t47 56t36.5 54t14.5 37.5q0 11 -6.5 15t-16.5 4q-16 0 -34.5 -11.5t-29.5 -22.5q-12 -11 -28.5 -34.5t-32.5 -51.5t-27 -54t-11 -42q0 -12 8 -12zM659 460
q-4 -3 -8 -5l-4 -2l1 7q1 2 1.5 3.5t5.5 5.5q14 13 24.5 28.5t14.5 33.5q3 11 -3.5 19.5t-17.5 10.5l3 10q5 0 12.5 4t10.5 7q4 2 7.5 6t5.5 4q18 -3 18 -22q0 -3 -0.5 -6.5t-1.5 -7.5q-6 -31 -25.5 -55t-43.5 -41z" />
    <glyph glyph-name="Dcroat" unicode="&#x110;" horiz-adv-x="626" 
d="M10 -19q-2 0 -7 1.5t-5 4.5q0 1 1 2l1 1q7 2 6.5 2t-0.5 -0.5t7 1.5q17 6 29.5 17.5t21.5 27.5q29 49 57 99t55 101q-19 -1 -37 -1.5t-38 -2.5q-2 0 3.5 8t13.5 17t13 8q10 -2 25.5 -3t32.5 -2l51 95q12 21 23 43l22 44q5 12 10.5 24t12.5 23q8 14 25.5 24.5t33.5 15.5
h-24q-20 0 -54.5 -2.5t-72.5 -8.5t-67.5 -18t-40.5 -32q-10 -18 -10 -35q0 -20 9 -27t9 -9t-3 -4t-5 -2q-6 0 -15 12t-16.5 26.5t-9.5 19.5q-3 11 -3 22q0 27 18.5 41.5t45.5 20.5t54.5 7.5t45.5 1.5q50 0 100 2.5t99 2.5q47 0 92.5 -6.5t82.5 -25.5t59.5 -54t22.5 -92
q0 -52 -19.5 -106.5t-48.5 -97.5q-122 -183 -342 -183q-34 0 -69.5 7t-66.5 23q-7 4 -14.5 6.5t-15.5 2.5q-17 0 -34 -10.5t-33 -21t-31 -10.5zM262 -2q75 0 140 29t114 81.5t77 120.5q13 32 21.5 67t8.5 69q0 78 -47.5 120.5t-124.5 42.5q-19 0 -39.5 -4t-33.5 -19
q-13 -16 -24.5 -35t-22.5 -37q-23 -40 -43.5 -82.5t-41.5 -83.5l-3 -5q25 0 44.5 1.5t33.5 2.5q3 0 -2.5 -8.5t-13.5 -16.5t-13 -8q-13 1 -28 2.5t-34 2.5l-49 -98q-7 -14 -14.5 -28.5t-14.5 -28.5q-2 -5 -4 -10.5t-2 -12.5q0 -13 8 -22t17 -17q19 -14 44 -18.5t47 -4.5z
" />
    <glyph glyph-name="dcroat" unicode="&#x111;" horiz-adv-x="294" 
d="M170 -3q-10 0 -17 4t-7 15q0 14 7 32t16 35.5t16 28.5q-35 -37 -73 -70q-19 -16 -42 -30t-49 -14q-10 0 -14 6.5t-4 15.5q0 5 1 7q5 39 25 81t49 79t59 60q23 17 44 21.5t46 4.5h33q17 28 35.5 63.5t35.5 68.5q-15 0 -29.5 -0.5t-30.5 -2.5q-2 0 2 7t10.5 14t9.5 6
q9 -2 22 -2.5t27 -0.5q11 18 19 32q41 70 90.5 112t110.5 42q13 0 24.5 -7.5t9.5 -22.5l-2 -36q0 -1 -2 -2.5t-3 -1.5t-3 2q-3 18 -18 27.5t-37 9.5q-7 0 -15.5 -1t-16.5 -4q-28 -10 -53 -40.5t-54 -80.5q-7 -12 -16 -30q20 1 35 1.5t26 1.5q2 0 -2 -7t-10 -13.5t-10 -6.5
q-11 1 -22.5 2t-27.5 2l-32.5 -65t-33.5 -68t-26 -56q-5 -12 -17 -36.5t-25.5 -53t-23 -52.5t-9.5 -34q0 -14 12 -14t32 14.5t41.5 36t39 41.5t24.5 30q3 -3 3 -7q0 -7 -5.5 -14t-9.5 -12q-18 -24 -44.5 -51.5t-57.5 -47t-63 -19.5zM62 32q12 0 33.5 17.5t46.5 44t47 56
t36.5 54t14.5 37.5q0 11 -6.5 15t-16.5 4q-16 0 -34.5 -11.5t-29.5 -22.5q-12 -11 -28.5 -34.5t-32.5 -51.5t-27 -54t-11 -42q0 -12 8 -12z" />
    <glyph glyph-name="Emacron" unicode="&#x112;" horiz-adv-x="478" 
d="M234 -12q-32 0 -65 1.5t-65 5.5q-71 6 -71 46q0 20 16 48q38 69 78 137.5t79 137.5q12 22 31 55t38 63q9 14 26 28.5t35 18.5q-21 -1 -53.5 -3t-66 -7.5t-60 -17t-37.5 -31.5q-4 -9 -7 -18t-3 -18q0 -23 16 -33q1 0 1 -2t-3.5 -4t-6.5 -1q-9 5 -22 24.5t-16 32.5
q-3 12 -3 22q0 26 17 40.5t43 21t53 8t48 1.5q53 0 106 1.5t105 1.5h45.5t44.5 -2q25 -1 34.5 -10t9.5 -22q0 -16 -10.5 -36.5t-19.5 -37.5q-4 -8 -13 -11.5t-7 5.5q5 20 5 40q0 18 -6.5 32.5t-24.5 20.5q-17 5 -53 5q-13 0 -26.5 -0.5t-27.5 -1.5q-40 -3 -54 -21
q-33 -46 -63.5 -99.5t-58.5 -101.5q-1 -2 -1 -5q0 -6 9 -6q35 0 75.5 -1t71.5 0q7 1 21.5 2t30 4t23.5 7q5 3 6 3q6 0 0.5 -11.5t-18 -23t-28.5 -11.5q-49 0 -82.5 2t-74.5 2h-21t-24 -1q-10 -1 -14 -8q-10 -18 -17.5 -33t-18.5 -35q-8 -15 -19.5 -38.5t-20.5 -48t-9 -42.5
q0 -31 29 -42.5t71 -12.5q58 0 114.5 11.5t106 39t86.5 74.5q2 2 3 2q3 0 4 -5.5t-1 -8.5q-31 -38 -60 -73.5t-58 -44.5q-21 -6 -68 -10.5t-104 -4.5zM365 611q-4 0 -9.5 7t-4.5 11l1 2q8 2 24.5 3t33.5 1.5t25 0.5q10 0 28 -1t35.5 -3t24.5 -5q1 -1 2 -1t1 -1q-2 -5 -7 -5
q-38 0 -77 -4.5t-77 -4.5z" />
    <glyph glyph-name="emacron" unicode="&#x113;" horiz-adv-x="249" 
d="M91 -8q-41 0 -57 16t-16 39q0 29 15.5 62t29.5 56q16 24 43 50t59 44t62 18q26 0 36 -12.5t10 -29.5q0 -31 -18.5 -51t-45.5 -32.5t-52 -20.5q-15 -4 -35 -8t-38 -4q-7 -18 -11 -35t-4 -31q0 -17 8.5 -28t28.5 -11q8 0 19 2t24 6q30 10 59 32t53.5 47.5t37.5 42.5
q3 -3 3 -7q0 -5 -7 -16q-20 -28 -52 -58t-71 -50.5t-81 -20.5zM92 139q13 -1 29.5 0.5t32.5 6.5q41 12 59.5 38.5t18.5 47.5q0 12 -5 20t-16 8q-29 0 -52 -21.5t-40 -49.5t-27 -50zM151 340q-4 0 -9.5 7t-4.5 11l1 2q8 2 24.5 3t33.5 1.5t25 0.5q10 0 28 -1t35.5 -3t24.5 -5
q1 -1 2 -1t1 -1q-2 -5 -7 -5q-38 0 -77 -4.5t-77 -4.5z" />
    <glyph glyph-name="Edotaccent" unicode="&#x116;" horiz-adv-x="478" 
d="M234 -12q-32 0 -65 1.5t-65 5.5q-71 6 -71 46q0 20 16 48q38 69 78 137.5t79 137.5q12 22 31 55t38 63q9 14 26 28.5t35 18.5q-21 -1 -53.5 -3t-66 -7.5t-60 -17t-37.5 -31.5q-4 -9 -7 -18t-3 -18q0 -23 16 -33q1 0 1 -2t-3.5 -4t-6.5 -1q-9 5 -22 24.5t-16 32.5
q-3 12 -3 22q0 26 17 40.5t43 21t53 8t48 1.5q53 0 106 1.5t105 1.5h45.5t44.5 -2q25 -1 34.5 -10t9.5 -22q0 -16 -10.5 -36.5t-19.5 -37.5q-4 -8 -13 -11.5t-7 5.5q5 20 5 40q0 18 -6.5 32.5t-24.5 20.5q-17 5 -53 5q-13 0 -26.5 -0.5t-27.5 -1.5q-40 -3 -54 -21
q-33 -46 -63.5 -99.5t-58.5 -101.5q-1 -2 -1 -5q0 -6 9 -6q35 0 75.5 -1t71.5 0q7 1 21.5 2t30 4t23.5 7q5 3 6 3q6 0 0.5 -11.5t-18 -23t-28.5 -11.5q-49 0 -82.5 2t-74.5 2h-21t-24 -1q-10 -1 -14 -8q-10 -18 -17.5 -33t-18.5 -35q-8 -15 -19.5 -38.5t-20.5 -48t-9 -42.5
q0 -31 29 -42.5t71 -12.5q58 0 114.5 11.5t106 39t86.5 74.5q2 2 3 2q3 0 4 -5.5t-1 -8.5q-31 -38 -60 -73.5t-58 -44.5q-21 -6 -68 -10.5t-104 -4.5zM435 607q-10 0 -20.5 7.5t-16.5 14.5q-1 2 8 8.5t19.5 12.5t11.5 5q8 -4 16 -8.5t17 -3.5h4q5 0 5 -3t-7 -10
q-9 -7 -18.5 -15t-18.5 -8z" />
    <glyph glyph-name="edotaccent" unicode="&#x117;" horiz-adv-x="249" 
d="M91 -8q-41 0 -57 16t-16 39q0 29 15.5 62t29.5 56q16 24 43 50t59 44t62 18q26 0 36 -12.5t10 -29.5q0 -31 -18.5 -51t-45.5 -32.5t-52 -20.5q-15 -4 -35 -8t-38 -4q-7 -18 -11 -35t-4 -31q0 -17 8.5 -28t28.5 -11q8 0 19 2t24 6q30 10 59 32t53.5 47.5t37.5 42.5
q3 -3 3 -7q0 -5 -7 -16q-20 -28 -52 -58t-71 -50.5t-81 -20.5zM92 139q13 -1 29.5 0.5t32.5 6.5q41 12 59.5 38.5t18.5 47.5q0 12 -5 20t-16 8q-29 0 -52 -21.5t-40 -49.5t-27 -50zM221 336q-10 0 -20.5 7.5t-16.5 14.5q-1 2 8 8.5t19.5 12.5t11.5 5q8 -4 16 -8.5t17 -3.5h4
q5 0 5 -3t-7 -10q-9 -7 -18.5 -15t-18.5 -8z" />
    <glyph glyph-name="Eogonek" unicode="&#x118;" horiz-adv-x="478" 
d="M234 -12q-32 0 -65 1.5t-65 5.5q-71 6 -71 46q0 20 16 48q38 69 78 137.5t79 137.5q12 22 31 55t38 63q9 14 26 28.5t35 18.5q-21 -1 -53.5 -3t-66 -7.5t-60 -17t-37.5 -31.5q-4 -9 -7 -18t-3 -18q0 -23 16 -33q1 0 1 -2t-3.5 -4t-6.5 -1q-9 5 -22 24.5t-16 32.5
q-3 12 -3 22q0 26 17 40.5t43 21t53 8t48 1.5q53 0 106 1.5t105 1.5h45.5t44.5 -2q25 -1 34.5 -10t9.5 -22q0 -16 -10.5 -36.5t-19.5 -37.5q-4 -8 -13 -11.5t-7 5.5q5 20 5 40q0 18 -6.5 32.5t-24.5 20.5q-17 5 -53 5q-13 0 -26.5 -0.5t-27.5 -1.5q-40 -3 -54 -21
q-33 -46 -63.5 -99.5t-58.5 -101.5q-1 -2 -1 -5q0 -6 9 -6q35 0 75.5 -1t71.5 0q7 1 21.5 2t30 4t23.5 7q5 3 6 3q6 0 0.5 -11.5t-18 -23t-28.5 -11.5q-49 0 -82.5 2t-74.5 2h-21t-24 -1q-10 -1 -14 -8q-10 -18 -17.5 -33t-18.5 -35q-8 -15 -19.5 -38.5t-20.5 -48t-9 -42.5
q0 -31 29 -42.5t71 -12.5q58 0 114.5 11.5t106 39t86.5 74.5q2 2 3 2q3 0 4 -5.5t-1 -8.5q-31 -38 -60 -73.5t-58 -44.5q-21 -6 -68 -10.5t-104 -4.5zM180 -186q-14 0 -18.5 9.5t-4.5 22.5q0 23 13 53t31.5 56t32.5 35h21q-12 -6 -23.5 -25.5t-19.5 -44t-8 -44.5
q0 -9 3.5 -16.5t13.5 -7.5q5 0 14 3q17 7 36.5 25.5t34.5 31.5q1 1 1 -1q0 -3 -2 -10t-4 -9q-12 -17 -38.5 -38t-55.5 -33q-17 -7 -27 -7z" />
    <glyph glyph-name="eogonek" unicode="&#x119;" horiz-adv-x="249" 
d="M91 -8q-41 0 -57 16t-16 39q0 29 15.5 62t29.5 56q16 24 43 50t59 44t62 18q26 0 36 -12.5t10 -29.5q0 -31 -18.5 -51t-45.5 -32.5t-52 -20.5q-15 -4 -35 -8t-38 -4q-7 -18 -11 -35t-4 -31q0 -17 8.5 -28t28.5 -11q8 0 19 2t24 6q30 10 59 32t53.5 47.5t37.5 42.5
q3 -3 3 -7q0 -5 -7 -16q-20 -28 -52 -58t-71 -50.5t-81 -20.5zM92 139q13 -1 29.5 0.5t32.5 6.5q41 12 59.5 38.5t18.5 47.5q0 12 -5 20t-16 8q-29 0 -52 -21.5t-40 -49.5t-27 -50zM79 -166q-14 0 -18.5 9.5t-4.5 22.5q0 23 13 53t31.5 56t32.5 35h21q-12 -6 -23.5 -25.5
t-19.5 -44t-8 -44.5q0 -9 3.5 -16.5t13.5 -7.5q5 0 14 3q17 7 36.5 25.5t34.5 31.5q1 1 1 -1q0 -3 -2 -10t-4 -9q-12 -17 -38.5 -38t-55.5 -33q-17 -7 -27 -7z" />
    <glyph glyph-name="Ecaron" unicode="&#x11a;" horiz-adv-x="478" 
d="M234 -12q-32 0 -65 1.5t-65 5.5q-71 6 -71 46q0 20 16 48q38 69 78 137.5t79 137.5q12 22 31 55t38 63q9 14 26 28.5t35 18.5q-21 -1 -53.5 -3t-66 -7.5t-60 -17t-37.5 -31.5q-4 -9 -7 -18t-3 -18q0 -23 16 -33q1 0 1 -2t-3.5 -4t-6.5 -1q-9 5 -22 24.5t-16 32.5
q-3 12 -3 22q0 26 17 40.5t43 21t53 8t48 1.5q53 0 106 1.5t105 1.5h45.5t44.5 -2q25 -1 34.5 -10t9.5 -22q0 -16 -10.5 -36.5t-19.5 -37.5q-4 -8 -13 -11.5t-7 5.5q5 20 5 40q0 18 -6.5 32.5t-24.5 20.5q-17 5 -53 5q-13 0 -26.5 -0.5t-27.5 -1.5q-40 -3 -54 -21
q-33 -46 -63.5 -99.5t-58.5 -101.5q-1 -2 -1 -5q0 -6 9 -6q35 0 75.5 -1t71.5 0q7 1 21.5 2t30 4t23.5 7q5 3 6 3q6 0 0.5 -11.5t-18 -23t-28.5 -11.5q-49 0 -82.5 2t-74.5 2h-21t-24 -1q-10 -1 -14 -8q-10 -18 -17.5 -33t-18.5 -35q-8 -15 -19.5 -38.5t-20.5 -48t-9 -42.5
q0 -31 29 -42.5t71 -12.5q58 0 114.5 11.5t106 39t86.5 74.5q2 2 3 2q3 0 4 -5.5t-1 -8.5q-31 -38 -60 -73.5t-58 -44.5q-21 -6 -68 -10.5t-104 -4.5zM431 608q-10 17 -28.5 36.5t-39.5 33.5q-4 2 -8 5t-10 3v3q3 1 11.5 4.5t9.5 4.5q7 3 15.5 -1.5t16 -11t10.5 -9.5
q11 -10 21.5 -21.5t17.5 -20.5q0 -3 6 0q6 6 23.5 18.5t36.5 24.5t29 15q4 2 7.5 1.5t6.5 -1.5q-29 -19 -58 -40t-55 -44h-12z" />
    <glyph glyph-name="ecaron" unicode="&#x11b;" horiz-adv-x="249" 
d="M91 -8q-41 0 -57 16t-16 39q0 29 15.5 62t29.5 56q16 24 43 50t59 44t62 18q26 0 36 -12.5t10 -29.5q0 -31 -18.5 -51t-45.5 -32.5t-52 -20.5q-15 -4 -35 -8t-38 -4q-7 -18 -11 -35t-4 -31q0 -17 8.5 -28t28.5 -11q8 0 19 2t24 6q30 10 59 32t53.5 47.5t37.5 42.5
q3 -3 3 -7q0 -5 -7 -16q-20 -28 -52 -58t-71 -50.5t-81 -20.5zM92 139q13 -1 29.5 0.5t32.5 6.5q41 12 59.5 38.5t18.5 47.5q0 12 -5 20t-16 8q-29 0 -52 -21.5t-40 -49.5t-27 -50zM217 337q-10 17 -28.5 36.5t-39.5 33.5q-4 2 -8 5t-10 3v3q3 1 11.5 4.5t9.5 4.5
q7 3 15.5 -1.5t16 -11t10.5 -9.5q11 -10 21.5 -21.5t17.5 -20.5q0 -3 6 0q6 6 23.5 18.5t36.5 24.5t29 15q4 2 7.5 1.5t6.5 -1.5q-29 -19 -58 -40t-55 -44h-12z" />
    <glyph glyph-name="Gcircumflex" unicode="&#x11c;" horiz-adv-x="576" 
d="M178 -348q-38 0 -78.5 16.5t-57.5 52.5q-7 13 -8.5 27.5t-1.5 28.5v11q0 8 2 14.5t10 6.5q2 0 2 -2q0 -6 -1 -12t-1 -13q0 -46 29.5 -70t73.5 -24q63 0 116 31t96 85q42 52 68.5 101.5t46.5 100.5t41 105q-26 -39 -72 -71.5t-99.5 -52t-103.5 -19.5q-53 0 -99.5 18.5
t-74.5 55.5t-28 93q0 65 25 127t67 115.5t94 92.5q46 35 106.5 57t120.5 22q25 0 47 -3.5t45 -14.5q20 -9 32 -22.5t12 -30.5v-5t-1 -5q-4 -16 -18.5 -36.5t-22.5 -42.5q-1 -4 -11 -6.5t-8 1.5q8 13 12.5 32t4.5 38q0 14 -2.5 26.5t-8.5 21.5q-10 18 -31 25t-45 7
q-23 0 -46 -5t-40 -11q-58 -21 -111 -66q-47 -41 -83.5 -95t-57.5 -111t-21 -109q0 -53 20.5 -86t54.5 -48.5t73 -15.5q81 0 142.5 37.5t104.5 98.5t66 131h-103q-12 0 -33 -1.5t-43 -7t-37 -17.5t-15 -33q0 -7 2 -14.5t3 -11.5l-9 -6q-7 13 -16.5 27.5t-10.5 23.5
q-1 8 1 21t13 23q12 11 34.5 14.5t46.5 3.5q22 0 42 -1.5t32 -1.5h190l-11 -12q-14 0 -31 -4.5t-28 -18.5q-22 -28 -33.5 -63t-23.5 -74q-20 -71 -39 -139.5t-50.5 -130t-91.5 -113.5q-32 -27 -80 -46.5t-89 -19.5zM546 627q-10 -5 -30 12q-11 10 -26.5 26t-20.5 21
q-5 8 -12 3q-5 -4 -21.5 -15.5t-33.5 -22.5t-26 -16q-12 -6 -20 -2q29 20 58.5 41t54.5 43h12q10 -16 28.5 -36t39.5 -34q4 -2 8 -5t10 -3v-3q-3 -1 -11 -4.5t-10 -4.5z" />
    <glyph glyph-name="gcircumflex" unicode="&#x11d;" horiz-adv-x="265" 
d="M-145 -350q-38 0 -73.5 17.5t-52.5 53.5q-7 13 -9 27.5t-2 28.5v10q0 8 2 15t11 7q2 0 2 -2q0 -6 -1 -12t-1 -13q0 -46 29.5 -70t73.5 -24q18 0 37 4t35 11q64 27 111.5 78t83 115t63 131.5t51.5 127.5q-21 -34 -46 -60.5t-56 -52.5q-19 -16 -41.5 -30t-48.5 -14
q-10 0 -14 6.5t-4 15.5v7q5 39 25.5 81t49.5 79t59 60q34 26 75 26h115q5 0 5 -4q0 -8 -9 -8q-11 0 -21 -9t-15 -17q-10 -16 -26 -49t-35 -75.5t-38 -86t-35 -81.5q-24 -57 -54.5 -111.5t-72 -98t-98.5 -68.5q-34 -15 -75 -15zM64 32q12 0 33 17.5t46 44t47 56t36.5 54
t14.5 37.5q0 11 -6.5 15t-16.5 4q-16 0 -34 -11.5t-29 -22.5q-12 -11 -28.5 -34.5t-33 -51.5t-27.5 -54t-11 -42q0 -12 9 -12zM333 339q-10 -5 -30 12q-11 10 -26.5 26t-20.5 21q-5 8 -12 3q-5 -4 -21.5 -15.5t-33.5 -22.5t-26 -16q-12 -6 -20 -2q29 20 58.5 41t54.5 43h12
q10 -16 28.5 -36t39.5 -34q4 -2 8 -5t10 -3v-3q-3 -1 -11 -4.5t-10 -4.5z" />
    <glyph glyph-name="Gbreve" unicode="&#x11e;" horiz-adv-x="576" 
d="M178 -348q-38 0 -78.5 16.5t-57.5 52.5q-7 13 -8.5 27.5t-1.5 28.5v11q0 8 2 14.5t10 6.5q2 0 2 -2q0 -6 -1 -12t-1 -13q0 -46 29.5 -70t73.5 -24q63 0 116 31t96 85q42 52 68.5 101.5t46.5 100.5t41 105q-26 -39 -72 -71.5t-99.5 -52t-103.5 -19.5q-53 0 -99.5 18.5
t-74.5 55.5t-28 93q0 65 25 127t67 115.5t94 92.5q46 35 106.5 57t120.5 22q25 0 47 -3.5t45 -14.5q20 -9 32 -22.5t12 -30.5v-5t-1 -5q-4 -16 -18.5 -36.5t-22.5 -42.5q-1 -4 -11 -6.5t-8 1.5q8 13 12.5 32t4.5 38q0 14 -2.5 26.5t-8.5 21.5q-10 18 -31 25t-45 7
q-23 0 -46 -5t-40 -11q-58 -21 -111 -66q-47 -41 -83.5 -95t-57.5 -111t-21 -109q0 -53 20.5 -86t54.5 -48.5t73 -15.5q81 0 142.5 37.5t104.5 98.5t66 131h-103q-12 0 -33 -1.5t-43 -7t-37 -17.5t-15 -33q0 -7 2 -14.5t3 -11.5l-9 -6q-7 13 -16.5 27.5t-10.5 23.5
q-1 8 1 21t13 23q12 11 34.5 14.5t46.5 3.5q22 0 42 -1.5t32 -1.5h190l-11 -12q-14 0 -31 -4.5t-28 -18.5q-22 -28 -33.5 -63t-23.5 -74q-20 -71 -39 -139.5t-50.5 -130t-91.5 -113.5q-32 -27 -80 -46.5t-89 -19.5zM443 618q-28 0 -45 14.5t-26 39.5q-4 11 -1 21q1 4 3.5 8
t3.5 4q2 0 3 -3.5t4 -8.5q11 -25 29 -35.5t38 -10.5q22 0 43 11t40 36q5 7 12 7q6 0 0 -11q-23 -38 -50 -55t-54 -17z" />
    <glyph glyph-name="gbreve" unicode="&#x11f;" horiz-adv-x="265" 
d="M-145 -350q-38 0 -73.5 17.5t-52.5 53.5q-7 13 -9 27.5t-2 28.5v10q0 8 2 15t11 7q2 0 2 -2q0 -6 -1 -12t-1 -13q0 -46 29.5 -70t73.5 -24q18 0 37 4t35 11q64 27 111.5 78t83 115t63 131.5t51.5 127.5q-21 -34 -46 -60.5t-56 -52.5q-19 -16 -41.5 -30t-48.5 -14
q-10 0 -14 6.5t-4 15.5v7q5 39 25.5 81t49.5 79t59 60q34 26 75 26h115q5 0 5 -4q0 -8 -9 -8q-11 0 -21 -9t-15 -17q-10 -16 -26 -49t-35 -75.5t-38 -86t-35 -81.5q-24 -57 -54.5 -111.5t-72 -98t-98.5 -68.5q-34 -15 -75 -15zM64 32q12 0 33 17.5t46 44t47 56t36.5 54
t14.5 37.5q0 11 -6.5 15t-16.5 4q-16 0 -34 -11.5t-29 -22.5q-12 -11 -28.5 -34.5t-33 -51.5t-27.5 -54t-11 -42q0 -12 9 -12zM241 329q-28 0 -45 14.5t-26 39.5q-4 11 -1 21q1 4 3.5 8t3.5 4q2 0 3 -3.5t4 -8.5q11 -25 29 -35.5t38 -10.5q22 0 43 11t40 36q5 7 12 7
q6 0 0 -11q-23 -38 -50 -55t-54 -17z" />
    <glyph glyph-name="Gdotaccent" unicode="&#x120;" horiz-adv-x="576" 
d="M178 -348q-38 0 -78.5 16.5t-57.5 52.5q-7 13 -8.5 27.5t-1.5 28.5v11q0 8 2 14.5t10 6.5q2 0 2 -2q0 -6 -1 -12t-1 -13q0 -46 29.5 -70t73.5 -24q63 0 116 31t96 85q42 52 68.5 101.5t46.5 100.5t41 105q-26 -39 -72 -71.5t-99.5 -52t-103.5 -19.5q-53 0 -99.5 18.5
t-74.5 55.5t-28 93q0 65 25 127t67 115.5t94 92.5q46 35 106.5 57t120.5 22q25 0 47 -3.5t45 -14.5q20 -9 32 -22.5t12 -30.5v-5t-1 -5q-4 -16 -18.5 -36.5t-22.5 -42.5q-1 -4 -11 -6.5t-8 1.5q8 13 12.5 32t4.5 38q0 14 -2.5 26.5t-8.5 21.5q-10 18 -31 25t-45 7
q-23 0 -46 -5t-40 -11q-58 -21 -111 -66q-47 -41 -83.5 -95t-57.5 -111t-21 -109q0 -53 20.5 -86t54.5 -48.5t73 -15.5q81 0 142.5 37.5t104.5 98.5t66 131h-103q-12 0 -33 -1.5t-43 -7t-37 -17.5t-15 -33q0 -7 2 -14.5t3 -11.5l-9 -6q-7 13 -16.5 27.5t-10.5 23.5
q-1 8 1 21t13 23q12 11 34.5 14.5t46.5 3.5q22 0 42 -1.5t32 -1.5h190l-11 -12q-14 0 -31 -4.5t-28 -18.5q-22 -28 -33.5 -63t-23.5 -74q-20 -71 -39 -139.5t-50.5 -130t-91.5 -113.5q-32 -27 -80 -46.5t-89 -19.5zM452 624q-10 0 -20.5 7.5t-16.5 14.5q-1 2 8 8.5
t19.5 12.5t11.5 5q8 -4 16 -8.5t17 -3.5h4q5 0 5 -3t-7 -10q-9 -7 -18.5 -15t-18.5 -8z" />
    <glyph glyph-name="gdotaccent" unicode="&#x121;" horiz-adv-x="265" 
d="M-145 -350q-38 0 -73.5 17.5t-52.5 53.5q-7 13 -9 27.5t-2 28.5v10q0 8 2 15t11 7q2 0 2 -2q0 -6 -1 -12t-1 -13q0 -46 29.5 -70t73.5 -24q18 0 37 4t35 11q64 27 111.5 78t83 115t63 131.5t51.5 127.5q-21 -34 -46 -60.5t-56 -52.5q-19 -16 -41.5 -30t-48.5 -14
q-10 0 -14 6.5t-4 15.5v7q5 39 25.5 81t49.5 79t59 60q34 26 75 26h115q5 0 5 -4q0 -8 -9 -8q-11 0 -21 -9t-15 -17q-10 -16 -26 -49t-35 -75.5t-38 -86t-35 -81.5q-24 -57 -54.5 -111.5t-72 -98t-98.5 -68.5q-34 -15 -75 -15zM64 32q12 0 33 17.5t46 44t47 56t36.5 54
t14.5 37.5q0 11 -6.5 15t-16.5 4q-16 0 -34 -11.5t-29 -22.5q-12 -11 -28.5 -34.5t-33 -51.5t-27.5 -54t-11 -42q0 -12 9 -12zM244 336q-10 0 -20.5 7.5t-16.5 14.5q-1 2 8 8.5t19.5 12.5t11.5 5q8 -4 16 -8.5t17 -3.5h4q5 0 5 -3t-7 -10q-9 -7 -18.5 -15t-18.5 -8z" />
    <glyph glyph-name="uni0122" unicode="&#x122;" horiz-adv-x="576" 
d="M178 -348q-38 0 -78.5 16.5t-57.5 52.5q-7 13 -8.5 27.5t-1.5 28.5v11q0 8 2 14.5t10 6.5q2 0 2 -2q0 -6 -1 -12t-1 -13q0 -46 29.5 -70t73.5 -24q63 0 116 31t96 85q42 52 68.5 101.5t46.5 100.5t41 105q-26 -39 -72 -71.5t-99.5 -52t-103.5 -19.5q-53 0 -99.5 18.5
t-74.5 55.5t-28 93q0 65 25 127t67 115.5t94 92.5q46 35 106.5 57t120.5 22q25 0 47 -3.5t45 -14.5q20 -9 32 -22.5t12 -30.5v-5t-1 -5q-4 -16 -18.5 -36.5t-22.5 -42.5q-1 -4 -11 -6.5t-8 1.5q8 13 12.5 32t4.5 38q0 14 -2.5 26.5t-8.5 21.5q-10 18 -31 25t-45 7
q-23 0 -46 -5t-40 -11q-58 -21 -111 -66q-47 -41 -83.5 -95t-57.5 -111t-21 -109q0 -53 20.5 -86t54.5 -48.5t73 -15.5q81 0 142.5 37.5t104.5 98.5t66 131h-103q-12 0 -33 -1.5t-43 -7t-37 -17.5t-15 -33q0 -7 2 -14.5t3 -11.5l-9 -6q-7 13 -16.5 27.5t-10.5 23.5
q-1 8 1 21t13 23q12 11 34.5 14.5t46.5 3.5q22 0 42 -1.5t32 -1.5h190l-11 -12q-14 0 -31 -4.5t-28 -18.5q-22 -28 -33.5 -63t-23.5 -74q-20 -71 -39 -139.5t-50.5 -130t-91.5 -113.5q-32 -27 -80 -46.5t-89 -19.5zM98 -552q-3 1 -3 3l33 27q30 26 36 46q3 11 -7 19.5
t-7 17.5q11 30 39 30q12 0 22 -7t10 -18q0 -3 -2 -9q-15 -42 -63 -80q-44 -33 -58 -29z" />
    <glyph glyph-name="uni0123" unicode="&#x123;" horiz-adv-x="265" 
d="M-145 -350q-38 0 -73.5 17.5t-52.5 53.5q-7 13 -9 27.5t-2 28.5v10q0 8 2 15t11 7q2 0 2 -2q0 -6 -1 -12t-1 -13q0 -46 29.5 -70t73.5 -24q18 0 37 4t35 11q64 27 111.5 78t83 115t63 131.5t51.5 127.5q-21 -34 -46 -60.5t-56 -52.5q-19 -16 -41.5 -30t-48.5 -14
q-10 0 -14 6.5t-4 15.5v7q5 39 25.5 81t49.5 79t59 60q34 26 75 26h115q5 0 5 -4q0 -8 -9 -8q-11 0 -21 -9t-15 -17q-10 -16 -26 -49t-35 -75.5t-38 -86t-35 -81.5q-24 -57 -54.5 -111.5t-72 -98t-98.5 -68.5q-34 -15 -75 -15zM64 32q12 0 33 17.5t46 44t47 56t36.5 54
t14.5 37.5q0 11 -6.5 15t-16.5 4q-16 0 -34 -11.5t-29 -22.5q-12 -11 -28.5 -34.5t-33 -51.5t-27.5 -54t-11 -42q0 -12 9 -12zM244 337q-12 0 -20.5 6.5t-8.5 17.5q0 2 0.5 4.5t1.5 5.5q9 22 27 41.5t43 38.5q20 14 34.5 22t21.5 8q5 0 6 -1.5t1 -2.5t-35 -27
q-33 -25 -40 -46q-4 -11 5.5 -19.5t5.5 -17.5q-12 -30 -42 -30z" />
    <glyph glyph-name="Hcircumflex" unicode="&#x124;" horiz-adv-x="770" 
d="M114 -20q-31 0 -59 18t-42 53q-5 13 -6.5 28t-1.5 29v13q0 7 1.5 13t7.5 6q2 0 2 -2q0 -6 -0.5 -12t-0.5 -12q0 -47 23.5 -71t58.5 -24t68 20t61 51q23 25 45.5 65t46.5 86q-32 -1 -67 -2.5t-64 -6.5q-9 -1 -5 5t15 15t23.5 16t20.5 8q17 -1 42.5 -1.5t50.5 -1.5
q22 40 42.5 81.5t38.5 77.5q10 20 26.5 40.5t37 36.5t42.5 20q-53 -2 -109.5 -3t-107.5 -15q-23 -6 -41 -16t-26 -25t-8 -33q0 -25 14 -36q1 -1 1 -2q0 -2 -3.5 -4t-6.5 -1q-9 5 -22 24.5t-16 32.5q-3 12 -3 22q0 26 17 40.5t43 21t53 8t48 1.5h111q38 0 66 0.5t45 3.5
q2 0 3 0.5t2 0.5q6 0 6 -4t-3.5 -7.5t-5.5 -3.5q-31 -3 -58 -27t-49 -62q-6 -11 -22 -41t-35 -66t-35 -67q19 -1 31.5 -1.5t14.5 -0.5h147q9 0 33.5 3t37.5 9q27 52 55 103t52.5 91.5t38.5 58.5q17 7 38.5 17t43 18t38.5 8q5 0 10.5 -3t5.5 -6q0 -5 -20 -5q-10 0 -21 -3.5
t-28 -21.5q-14 -14 -36.5 -47.5t-48.5 -78t-52.5 -93.5t-49.5 -95.5t-39 -84t-21 -57.5q-1 -7 -2.5 -15.5t-1.5 -16.5q0 -16 8 -28t30 -12q16 0 32.5 6t29.5 13q36 20 65 54.5t47 58.5q3 4 4 4q3 0 3 -7q0 -6 -3 -11q-19 -27 -50 -62.5t-72 -58.5q-32 -17 -73 -17
q-31 0 -53.5 22.5t-22.5 54.5q0 16 6 32q9 23 29.5 66t46.5 95q-10 -9 -23 -16t-25 -6q-31 3 -70.5 3.5t-101.5 0.5h-48q-28 -57 -58 -111.5t-62 -89.5q-25 -27 -60 -44t-70 -17zM790 643q-10 -5 -30 12q-11 10 -26.5 26t-20.5 21q-5 8 -12 3q-5 -4 -21.5 -15.5t-33.5 -22.5
t-26 -16q-12 -6 -20 -2q29 20 58.5 41t54.5 43h12q10 -16 28.5 -36t39.5 -34q4 -2 8 -5t10 -3v-3q-3 -1 -11 -4.5t-10 -4.5z" />
    <glyph glyph-name="hcircumflex" unicode="&#x125;" horiz-adv-x="294" 
d="M182 -6q-15 0 -26.5 6t-11.5 22q0 9 4 20q9 23 24.5 56t31.5 64.5t25 51.5q6 12 6 17q0 9 -10 4t-22 -14t-18 -14q-26 -24 -54.5 -56.5t-52 -68t-36.5 -70.5q-1 -6 -13 -10t-22 -4q-16 0 -12 10q23 52 47.5 115t55.5 129q23 50 51.5 103t63.5 101.5t77 85.5
q37 32 81.5 52.5t96.5 20.5q23 0 40 -9.5t19 -33.5v-9q0 -14 -3 -28q-1 -4 -8 -4q-3 0 -2 1q4 26 -13.5 37t-44.5 11q-49 0 -90 -18t-76 -48q-54 -47 -94 -120t-69 -149q-14 -37 -27.5 -74t-25.5 -69q45 60 86.5 103t72.5 61q25 14 45 14q19 0 19 -16q0 -14 -14 -36
q-7 -11 -21.5 -37t-30 -56.5t-26.5 -56.5t-11 -38q0 -16 14 -16q8 0 18.5 5t15.5 9q27 20 53 49t44 51q1 1 1 -3t-1.5 -11.5t-6.5 -12.5q-11 -15 -22.5 -28.5t-22.5 -26.5q-19 -22 -45.5 -42t-59.5 -20zM542 679q-10 -5 -30 12q-11 10 -26.5 26t-20.5 21q-5 8 -12 3
q-5 -4 -21.5 -15.5t-33.5 -22.5t-26 -16q-12 -6 -20 -2q29 20 58.5 41t54.5 43h12q10 -16 28.5 -36t39.5 -34q4 -2 8 -5t10 -3v-3q-3 -1 -11 -4.5t-10 -4.5z" />
    <glyph glyph-name="Hbar" unicode="&#x126;" horiz-adv-x="770" 
d="M114 -20q-31 0 -59 18t-42 53q-5 13 -6.5 28t-1.5 29v13q0 7 1.5 13t7.5 6q2 0 2 -2q0 -6 -0.5 -12t-0.5 -12q0 -47 23.5 -71t58.5 -24t68 20t61 51q23 25 45.5 65t46.5 86q-32 -1 -67 -2.5t-64 -6.5q-9 -1 -5 5t15 15t23.5 16t20.5 8q17 -1 42.5 -1.5t50.5 -1.5
q22 40 42.5 81.5t38.5 77.5q5 10 11 20h-10q-12 0 -26.5 10t-12.5 15l3 3q11 1 29.5 2t41.5 2q15 16 33 28.5t37 16.5q-53 -2 -109.5 -3t-107.5 -15q-23 -6 -41 -16t-26 -25t-8 -33q0 -25 14 -36q1 -1 1 -2q0 -2 -3.5 -4t-6.5 -1q-9 5 -22 24.5t-16 32.5q-3 12 -3 22
q0 26 17 40.5t43 21t53 8t48 1.5h111q38 0 66 0.5t45 3.5q2 0 3 0.5t2 0.5q6 0 6 -4t-3.5 -7.5t-5.5 -3.5q-22 -2 -42 -15t-38 -34q34 1 65.5 1h48.5q22 0 62 -1t81 -3q21 36 34 52q17 7 38.5 17t43 18t38.5 8q5 0 10.5 -3t5.5 -6q0 -5 -20 -5q-10 0 -21 -3.5t-28 -21.5
q-8 -8 -19.5 -23.5t-24.5 -35.5q33 -2 46 -5q2 -1 5 -1t3 -2q-1 -3 -7 -4.5t-12 -1.5h-44q-28 -44 -59 -99.5t-60 -112t-49 -102t-26 -69.5q-1 -7 -2.5 -15.5t-1.5 -16.5q0 -16 8 -28t30 -12q16 0 32.5 6t29.5 13q36 20 65 54.5t47 58.5q3 4 4 4q3 0 3 -7q0 -6 -3 -11
q-19 -27 -50 -62.5t-72 -58.5q-32 -17 -73 -17q-31 0 -53.5 22.5t-22.5 54.5q0 16 6 32q9 23 29.5 66t46.5 95q-10 -9 -23 -16t-25 -6q-31 3 -70.5 3.5t-101.5 0.5h-48q-28 -57 -58 -111.5t-62 -89.5q-25 -27 -60 -44t-70 -17zM425 269h147q9 0 33.5 3t37.5 9q25 48 51.5 96
t48.5 86q-67 -2 -134 -5.5t-133 -4.5q-3 -4 -5 -8q-6 -11 -22 -41t-35 -66t-35 -67q19 -1 31.5 -1.5t14.5 -0.5z" />
    <glyph glyph-name="hbar" unicode="&#x127;" horiz-adv-x="294" 
d="M182 -6q-15 0 -26.5 6t-11.5 22q0 9 4 20q9 23 24.5 56t31.5 64.5t25 51.5q6 12 6 17q0 9 -10 4t-22 -14t-18 -14q-26 -24 -54.5 -56.5t-52 -68t-36.5 -70.5q-1 -6 -13 -10t-22 -4q-16 0 -12 10q23 52 47.5 115t55.5 129q19 43 43.5 89t53.5 89l-32 -2t-32 -1
q-4 0 -9.5 7t-4.5 11l1 2q8 2 24.5 3t33.5 1.5t25 0.5h9q18 25 38 48t42 42q37 32 81.5 52.5t96.5 20.5q23 0 40 -9.5t19 -33.5v-9q0 -14 -3 -28q-1 -4 -8 -4q-3 0 -2 1q4 26 -13.5 37t-44.5 11q-49 0 -90 -18t-76 -48q-30 -26 -57 -63q16 -1 32.5 -3t23.5 -5q1 -1 2 -1
t1 -1q-2 -5 -7 -5q-16 0 -32.5 -1t-32.5 -2q-28 -42 -51.5 -90.5t-41.5 -97.5q-14 -37 -27.5 -74t-25.5 -69q45 60 86.5 103t72.5 61q25 14 45 14q19 0 19 -16q0 -14 -14 -36q-7 -11 -21.5 -37t-30 -56.5t-26.5 -56.5t-11 -38q0 -16 14 -16q8 0 18.5 5t15.5 9q27 20 53 49
t44 51q1 1 1 -3t-1.5 -11.5t-6.5 -12.5q-11 -15 -22.5 -28.5t-22.5 -26.5q-19 -22 -45.5 -42t-59.5 -20z" />
    <glyph glyph-name="Itilde" unicode="&#x128;" horiz-adv-x="365" 
d="M120 -10q-31 0 -59 17.5t-42 53.5q-5 13 -7 27.5t-2 28.5t5 14q6 0 6 -8q0 -47 23.5 -71t58.5 -24t68 20t61 51q45 50 77 101.5t58.5 106t53.5 113.5q14 30 34.5 56.5t45.5 42.5h-30q-15 0 -41.5 -2t-53.5 -9t-45 -23t-16 -43q1 -8 6 -21.5t6 -16.5l-10 -8
q-6 11 -15 25.5t-16.5 28.5t-8.5 21q-1 10 1.5 26t15.5 28q15 13 41.5 17t54.5 4q27 0 52 -2t41 -2l160 1l-13 -15q-10 0 -28.5 -1.5t-38.5 -5.5q-24 -4 -55 -26.5t-53 -59.5l-9 -15q-15 -34 -34 -81t-42.5 -99t-51.5 -100.5t-62 -84.5q-25 -27 -63 -46t-73 -19zM519 606
q-16 0 -42 13q-26 14 -39 14q-15 0 -28 -13t-17 -13q-1 1 -1 2q0 14 35 41q13 10 30 10q12 0 39 -11q24 -10 39 -10q19 0 34 21q5 0 5 -4q0 -15 -33 -42q-10 -8 -22 -8z" />
    <glyph glyph-name="itilde" unicode="&#x129;" horiz-adv-x="192" 
d="M68 -3q-10 0 -16.5 4t-6.5 15q0 14 7.5 33t17 38t14.5 31q7 14 17.5 36.5t20 43t13.5 28.5q-14 -15 -33.5 -37.5t-36.5 -43.5t-26 -33q-3 -4 -5 -4t-2 5q0 8 5 15q19 24 42.5 54t42.5 55.5t24 33.5q11 2 32.5 6t29.5 11q3 3 6 3q2 0 2.5 -3.5t-2.5 -7.5q-6 -7 -21 -34
t-31.5 -59.5t-30.5 -58.5q-14 -27 -24 -52t-10 -36q0 -14 14 -14q13 0 33.5 16t41.5 38.5t37 41.5q5 6 12.5 14.5t9.5 10.5q2 -2 2 -7q-1 -7 -5 -13.5t-8 -11.5q-21 -26 -46 -53.5t-55 -46t-65 -18.5zM218 337q-16 0 -42 13q-26 14 -39 14q-15 0 -28 -13t-17 -13q-1 1 -1 2
q0 14 35 41q13 10 30 10q12 0 39 -11q24 -10 39 -10q19 0 34 21q5 0 5 -4q0 -15 -33 -42q-10 -8 -22 -8z" />
    <glyph glyph-name="Imacron" unicode="&#x12a;" horiz-adv-x="365" 
d="M120 -10q-31 0 -59 17.5t-42 53.5q-5 13 -7 27.5t-2 28.5t5 14q6 0 6 -8q0 -47 23.5 -71t58.5 -24t68 20t61 51q45 50 77 101.5t58.5 106t53.5 113.5q14 30 34.5 56.5t45.5 42.5h-30q-15 0 -41.5 -2t-53.5 -9t-45 -23t-16 -43q1 -8 6 -21.5t6 -16.5l-10 -8
q-6 11 -15 25.5t-16.5 28.5t-8.5 21q-1 10 1.5 26t15.5 28q15 13 41.5 17t54.5 4q27 0 52 -2t41 -2l160 1l-13 -15q-10 0 -28.5 -1.5t-38.5 -5.5q-24 -4 -55 -26.5t-53 -59.5l-9 -15q-15 -34 -34 -81t-42.5 -99t-51.5 -100.5t-62 -84.5q-25 -27 -63 -46t-73 -19zM410 609
q-4 0 -9.5 7t-4.5 11l1 2q8 2 24.5 3t33.5 1.5t25 0.5q10 0 28 -1t35.5 -3t24.5 -5q1 -1 2 -1t1 -1q-2 -5 -7 -5q-38 0 -77 -4.5t-77 -4.5z" />
    <glyph glyph-name="imacron" unicode="&#x12b;" horiz-adv-x="192" 
d="M68 -3q-10 0 -16.5 4t-6.5 15q0 14 7.5 33t17 38t14.5 31q7 14 17.5 36.5t20 43t13.5 28.5q-14 -15 -33.5 -37.5t-36.5 -43.5t-26 -33q-3 -4 -5 -4t-2 5q0 8 5 15q19 24 42.5 54t42.5 55.5t24 33.5q11 2 32.5 6t29.5 11q3 3 6 3q2 0 2.5 -3.5t-2.5 -7.5q-6 -7 -21 -34
t-31.5 -59.5t-30.5 -58.5q-14 -27 -24 -52t-10 -36q0 -14 14 -14q13 0 33.5 16t41.5 38.5t37 41.5q5 6 12.5 14.5t9.5 10.5q2 -2 2 -7q-1 -7 -5 -13.5t-8 -11.5q-21 -26 -46 -53.5t-55 -46t-65 -18.5zM109 340q-4 0 -9.5 7t-4.5 11l1 2q8 2 24.5 3t33.5 1.5t25 0.5
q10 0 28 -1t35.5 -3t24.5 -5q1 -1 2 -1t1 -1q-2 -5 -7 -5q-38 0 -77 -4.5t-77 -4.5z" />
    <glyph glyph-name="Iogonek" unicode="&#x12e;" horiz-adv-x="365" 
d="M120 -10q-31 0 -59 17.5t-42 53.5q-5 13 -7 27.5t-2 28.5t5 14q6 0 6 -8q0 -47 23.5 -71t58.5 -24t68 20t61 51q45 50 77 101.5t58.5 106t53.5 113.5q14 30 34.5 56.5t45.5 42.5h-30q-15 0 -41.5 -2t-53.5 -9t-45 -23t-16 -43q1 -8 6 -21.5t6 -16.5l-10 -8
q-6 11 -15 25.5t-16.5 28.5t-8.5 21q-1 10 1.5 26t15.5 28q15 13 41.5 17t54.5 4q27 0 52 -2t41 -2l160 1l-13 -15q-10 0 -28.5 -1.5t-38.5 -5.5q-24 -4 -55 -26.5t-53 -59.5l-9 -15q-15 -34 -34 -81t-42.5 -99t-51.5 -100.5t-62 -84.5q-25 -27 -63 -46t-73 -19zM35 -181
q-14 0 -18.5 9.5t-4.5 22.5q0 23 13 53t31.5 56t32.5 35h21q-12 -6 -23.5 -25.5t-19.5 -44t-8 -44.5q0 -9 3.5 -16.5t13.5 -7.5q5 0 14 3q17 7 36.5 25.5t34.5 31.5q1 1 1 -1q0 -3 -2 -10t-4 -9q-12 -17 -38.5 -38t-55.5 -33q-17 -7 -27 -7z" />
    <glyph glyph-name="iogonek" unicode="&#x12f;" horiz-adv-x="192" 
d="M68 -3q-10 0 -16.5 4t-6.5 15q0 14 7.5 33t17 38t14.5 31q7 14 17.5 36.5t20 43t13.5 28.5q-14 -15 -33.5 -37.5t-36.5 -43.5t-26 -33q-3 -4 -5 -4t-2 5q0 8 5 15q19 24 42.5 54t42.5 55.5t24 33.5q11 2 32.5 6t29.5 11q3 3 6 3q2 0 2.5 -3.5t-2.5 -7.5q-6 -7 -21 -34
t-31.5 -59.5t-30.5 -58.5q-14 -27 -24 -52t-10 -36q0 -14 14 -14q13 0 33.5 16t41.5 38.5t37 41.5q5 6 12.5 14.5t9.5 10.5q2 -2 2 -7q-1 -7 -5 -13.5t-8 -11.5q-21 -26 -46 -53.5t-55 -46t-65 -18.5zM179 336q-10 0 -20.5 7.5t-16.5 14.5q-1 2 8 8.5t19.5 12.5t11.5 5
q8 -4 16 -8.5t17 -3.5h4q5 0 5 -3t-7 -10q-9 -7 -18.5 -15t-18.5 -8zM9 -166q-14 0 -18.5 9.5t-4.5 22.5q0 23 13 53t31.5 56t32.5 35h21q-12 -6 -23.5 -25.5t-19.5 -44t-8 -44.5q0 -9 3.5 -16.5t13.5 -7.5q5 0 14 3q17 7 36.5 25.5t34.5 31.5q1 1 1 -1q0 -3 -2 -10t-4 -9
q-12 -17 -38.5 -38t-55.5 -33q-17 -7 -27 -7z" />
    <glyph glyph-name="Idotaccent" unicode="&#x130;" horiz-adv-x="365" 
d="M120 -10q-31 0 -59 17.5t-42 53.5q-5 13 -7 27.5t-2 28.5t5 14q6 0 6 -8q0 -47 23.5 -71t58.5 -24t68 20t61 51q45 50 77 101.5t58.5 106t53.5 113.5q14 30 34.5 56.5t45.5 42.5h-30q-15 0 -41.5 -2t-53.5 -9t-45 -23t-16 -43q1 -8 6 -21.5t6 -16.5l-10 -8
q-6 11 -15 25.5t-16.5 28.5t-8.5 21q-1 10 1.5 26t15.5 28q15 13 41.5 17t54.5 4q27 0 52 -2t41 -2l160 1l-13 -15q-10 0 -28.5 -1.5t-38.5 -5.5q-24 -4 -55 -26.5t-53 -59.5l-9 -15q-15 -34 -34 -81t-42.5 -99t-51.5 -100.5t-62 -84.5q-25 -27 -63 -46t-73 -19zM480 605
q-10 0 -20.5 7.5t-16.5 14.5q-1 2 8 8.5t19.5 12.5t11.5 5q8 -4 16 -8.5t17 -3.5h4q5 0 5 -3t-7 -10q-9 -7 -18.5 -15t-18.5 -8z" />
    <glyph glyph-name="dotlessi" unicode="&#x131;" horiz-adv-x="192" 
d="M68 -3q-10 0 -16.5 4t-6.5 15q0 14 7.5 33t17 38t14.5 31q7 14 17.5 36.5t20 43t13.5 28.5q-14 -15 -33.5 -37.5t-36.5 -43.5t-26 -33q-3 -4 -5 -4t-2 5q0 8 5 15q19 24 42.5 54t42.5 55.5t24 33.5q11 2 32.5 6t29.5 11q3 3 6 3q2 0 2.5 -3.5t-2.5 -7.5q-6 -7 -21 -34
t-31.5 -59.5t-30.5 -58.5q-14 -27 -24 -52t-10 -36q0 -14 14 -14q13 0 33.5 16t41.5 38.5t37 41.5q5 6 12.5 14.5t9.5 10.5q2 -2 2 -7q-1 -7 -5 -13.5t-8 -11.5q-21 -26 -46 -53.5t-55 -46t-65 -18.5z" />
    <glyph glyph-name="Jcircumflex" unicode="&#x134;" horiz-adv-x="203" 
d="M-113 -167q-31 0 -59 18t-42 54q-5 13 -6.5 27.5t-1.5 28.5t5 14t5 -8q0 -47 23.5 -71t59.5 -24q35 0 67.5 20t60.5 51q47 51 85.5 116.5t69.5 135.5q8 17 23 54.5t33 82t35 80.5q15 34 25.5 54t28.5 34t54 28q-16 -1 -30 -2.5t-22 -1.5q-38 -1 -76 -5t-68 -14.5
t-43 -29.5q-9 -13 -9 -30t9 -33t23 -23q2 -2 2 -3q0 -2 -4.5 -4.5t-9.5 -1.5q-8 5 -20 16.5t-21.5 24.5t-12.5 22q-4 12 -4 24q0 24 17.5 39t45.5 23t60.5 11.5t63 4t52.5 0.5h108q2 0 2 -1q0 -3 -6.5 -8.5t-8.5 -5.5q-28 -1 -49.5 -21t-37 -45.5t-25.5 -46.5
q-6 -12 -18.5 -38.5t-27 -60t-29 -66.5t-25.5 -57q-26 -60 -48.5 -111.5t-49.5 -96.5t-67 -88q-25 -27 -63.5 -46.5t-73.5 -19.5zM413 611q-10 -5 -30 12q-11 10 -26.5 26t-20.5 21q-5 8 -12 3q-5 -4 -21.5 -15.5t-33.5 -22.5t-26 -16q-12 -6 -20 -2q29 20 58.5 41t54.5 43
h12q10 -16 28.5 -36t39.5 -34q4 -2 8 -5t10 -3v-3q-3 -1 -11 -4.5t-10 -4.5z" />
    <glyph glyph-name="jcircumflex" unicode="&#x135;" horiz-adv-x="135" 
d="M-283 -350q-38 0 -73.5 17.5t-52.5 53.5q-6 13 -8 27.5t-2 28.5v11q0 8 2 14.5t10 6.5q3 0 3 -2q0 -6 -1.5 -12t-1.5 -13q0 -46 29.5 -70t73.5 -24q18 0 37 4t36 11q63 27 109.5 76.5t81.5 111.5t63 126q24 56 40 105t25.5 81t12.5 35q16 16 42 26.5t41 10.5q12 0 12 -6
q0 -8 -9 -8q-11 0 -20 -5.5t-14 -13.5q-9 -13 -25.5 -47t-36 -78.5t-38.5 -90t-35 -83.5q-24 -57 -54.5 -111.5t-72.5 -98t-99 -68.5q-34 -15 -75 -15zM239 339q-10 -5 -30 12q-11 10 -26.5 26t-20.5 21q-5 8 -12 3q-5 -4 -21.5 -15.5t-33.5 -22.5t-26 -16q-12 -6 -20 -2
q29 20 58.5 41t54.5 43h12q10 -16 28.5 -36t39.5 -34q4 -2 8 -5t10 -3v-3q-3 -1 -11 -4.5t-10 -4.5z" />
    <glyph glyph-name="uni0136" unicode="&#x136;" horiz-adv-x="560" 
d="M6 -21q-4 0 -6.5 2t-0.5 3q23 18 38.5 36t31.5 46l14 24q20 34 45 78t50.5 89t47 83t34.5 61.5l13 23.5q27 47 59.5 71.5t57.5 31.5q-73 -1 -130 -11t-77 -47q-4 -7 -5.5 -15.5t-1.5 -16.5q0 -26 14 -37q1 -1 1 -2q0 -2 -3.5 -4t-6.5 -1q-9 5 -22 24.5t-16 32.5
q-3 12 -3 22q0 27 19 42t46.5 21t56.5 7t48 1h40q20 0 43.5 0.5t39.5 3.5h4q6 0 9 -4t3 -8q0 -8 -7 -8q-4 0 -6.5 0.5t-6.5 0.5q-46 0 -92 -80l-10.5 -17.5t-26 -44.5t-32.5 -57t-30 -54q-27 -50 -57.5 -108.5t-62.5 -121.5q-7 -12 -12 -27.5t-15 -15.5q-4 0 -10 1t-13 1
q-17 0 -30.5 -6t-27.5 -19q-1 -1 -4 -1zM442 -11q-25 0 -51 16.5t-53 51.5q-32 43 -54 83.5t-35.5 70.5t-20.5 43q56 52 115.5 93t118.5 78q40 24 86 53.5t93 49.5q33 14 64 14q14 0 28 -2.5t27 -7.5q10 -3 23 -12.5t11 -21.5q0 -4 -4 -4q-5 0 -9 6t-12 12t-25 6
q-22 0 -48.5 -9t-46.5 -17q-40 -17 -84 -37t-83 -42q-35 -19 -74 -44t-75.5 -50.5t-65.5 -46.5q6 -15 20 -45t37 -67.5t54 -75.5q23 -28 45.5 -40.5t42.5 -12.5q27 0 50.5 15.5t45 39.5t40.5 49q5 6 7 6q4 0 4 -5q0 -6 -5 -12q-44 -61 -84.5 -98t-81.5 -37zM120 -227
q-3 1 -3 3l33 27q30 26 36 46q3 11 -7 19.5t-7 17.5q11 30 39 30q12 0 22 -7t10 -18q0 -3 -2 -9q-15 -42 -63 -80q-44 -33 -58 -29z" />
    <glyph glyph-name="uni0137" unicode="&#x137;" horiz-adv-x="324" 
d="M213 -5q-25 0 -38 17q-8 12 -16 36t-14 50t-10 42q-28 -36 -49.5 -72t-28.5 -56q-2 -6 -13.5 -10t-22.5 -4q-16 0 -12 10q31 69 59 133t59.5 129t71.5 135q28 51 67.5 98.5t84.5 78t91 30.5q15 0 28 -8t13 -25v-29q0 -4 -6 -4q-3 0 -3 2q0 16 -14 21.5t-27 5.5
q-35 0 -71 -14q-40 -16 -67 -48t-50 -68q-30 -46 -59 -107.5t-53.5 -123.5t-43.5 -112l22 28t21 26q0 2 -0.5 4t-0.5 4q0 7 3 12t8 12q7 10 13 15.5t13 14.5l3 -17q44 45 77 65q23 14 45 14t22 -17q0 -14 -14 -35q-5 -7 -6 -10t-4 -6q-1 -1 -4 0t-3 3q0 12 -8 15.5t-18 3.5
q-19 0 -40.5 -13.5t-43.5 -36.5q5 -25 11.5 -54.5t14.5 -54.5t15 -37q5 -8 14 -10.5t15 -2.5q14 0 32.5 14.5t38 35t36 40.5t25.5 32q4 -5 2 -10q-1 -6 -5.5 -12.5t-8.5 -11.5q-20 -25 -43 -50.5t-49 -45.5q-11 -9 -27 -15.5t-32 -6.5zM13 -227q-3 1 -3 3l33 27q30 26 36 46
q3 11 -7 19.5t-7 17.5q11 30 39 30q12 0 22 -7t10 -18q0 -3 -2 -9q-15 -42 -63 -80q-44 -33 -58 -29z" />
    <glyph glyph-name="kgreenlandic" unicode="&#x138;" horiz-adv-x="324" 
d="M213 -5q-25 0 -38 17q-8 12 -16 36t-14 50t-10 42q-28 -36 -49.5 -72t-28.5 -56q-2 -6 -13.5 -10t-22.5 -4q-16 0 -12 10q23 52 37 83.5t22 51t14 33.5t12 30q15 37 36.5 75.5t49 71.5t59.5 53.5t66 20.5q15 0 30.5 -8t19.5 -25l7 -29q1 -4 -5 -4q-3 0 -3 2
q-5 18 -24.5 22.5t-31.5 4.5q-38 0 -68 -23t-53 -58.5t-40 -75.5t-28.5 -75t-19.5 -56l22 28t21 26q0 2 -0.5 4t-0.5 4q0 7 3 12t8 12q7 10 13 15.5t13 14.5l3 -17q44 45 77 65q23 14 45 14t22 -17q0 -14 -14 -35q-5 -7 -6 -10t-4 -6q-1 -1 -4 0t-3 3q0 12 -8 15.5t-18 3.5
q-19 0 -40.5 -13.5t-43.5 -36.5q5 -25 11.5 -54.5t14.5 -54.5t15 -37q5 -8 14 -10.5t15 -2.5q14 0 32.5 14.5t38 35t36 40.5t25.5 32q4 -5 2 -10q-1 -6 -5.5 -12.5t-8.5 -11.5q-20 -25 -43 -50.5t-49 -45.5q-11 -9 -27 -15.5t-32 -6.5z" />
    <glyph glyph-name="Lacute" unicode="&#x139;" horiz-adv-x="547" 
d="M8 -7q-1 -1 -2 -1q-3 0 -3 9q0 6 3.5 12.5t13.5 7.5q28 2 53 19t44 40.5t27 44.5l92 230q19 47 43.5 91t63 72t97.5 28q23 0 46.5 -5.5t39.5 -17.5t16 -34v-6t-1 -6q-3 -16 -17.5 -32t-22.5 -40q-1 -7 -9 -7q-7 0 -3 9q8 12 12.5 28.5t4.5 33.5q0 26 -12 46t-41 20
q-26 0 -53 -15t-47 -52l-185 -341q-26 -48 -47.5 -68.5t-35.5 -25.5h241q48 0 89 3t50 15q10 14 10 30q0 25 -27 37q-3 2 -3 4t2.5 4t6.5 0q9 -4 21.5 -17.5t23.5 -29t14 -24.5t3 -18q0 -41 -71 -41q-56 0 -120 4t-126.5 9t-117.5 7q-21 2 -41.5 -5.5t-31.5 -17.5zM388 616
q-6 2 -4 9q23 12 46.5 24.5t55.5 29.5q11 6 24 13t17 6q2 -1 4 -3.5t1 -6.5q-2 -17 -10 -21q-12 -7 -36.5 -16.5t-51.5 -19t-46 -15.5z" />
    <glyph glyph-name="lacute" unicode="&#x13a;" horiz-adv-x="214" 
d="M100 -2q-30 0 -41 14.5t-11 35.5q0 28 12.5 60t20.5 50q-13 -14 -25 -27t-17 -19q-3 -4 -5 -4t-2 5q0 8 5 15q14 18 32 38t35 42q20 37 44.5 86.5t51 102t52 97t45.5 71.5q17 7 32.5 18t31 20.5t32.5 9.5q11 0 16.5 -6t7.5 -14q1 -3 1 -11q0 -23 -15.5 -56t-36 -64.5
t-35.5 -51.5q-40 -56 -82 -101.5t-75.5 -76t-48.5 -44.5q-7 -13 -16.5 -34.5t-16.5 -45t-7 -43.5q0 -17 8 -28.5t27 -11.5h6t7 1q17 3 37 19t40 37t36 40q7 8 13 15.5t8 10.5q7 -7 -0.5 -17.5l-12.5 -17.5q-7 -9 -20 -24.5t-30 -33.5q-19 -19 -47 -38t-57 -19zM142 228
q31 26 78.5 74.5t93.5 117.5q5 8 16.5 27t24 43.5t21.5 48t9 40.5q0 16 -9 16q-11 0 -29 -19q-21 -22 -47.5 -64.5t-55.5 -94.5t-55.5 -102t-46.5 -87zM346 670q-1 0 -2 3.5t0 5.5q20 16 45.5 36.5t52.5 43.5q14 13 21 17t11 4q3 0 3 -9q0 -6 -1 -13t-3 -9
q-8 -9 -30.5 -23.5t-49.5 -29.5t-47 -26z" />
    <glyph glyph-name="uni013B" unicode="&#x13b;" horiz-adv-x="547" 
d="M8 -7q-1 -1 -2 -1q-3 0 -3 9q0 6 3.5 12.5t13.5 7.5q28 2 53 19t44 40.5t27 44.5l92 230q19 47 43.5 91t63 72t97.5 28q23 0 46.5 -5.5t39.5 -17.5t16 -34v-6t-1 -6q-3 -16 -17.5 -32t-22.5 -40q-1 -7 -9 -7q-7 0 -3 9q8 12 12.5 28.5t4.5 33.5q0 26 -12 46t-41 20
q-26 0 -53 -15t-47 -52l-185 -341q-26 -48 -47.5 -68.5t-35.5 -25.5h241q48 0 89 3t50 15q10 14 10 30q0 25 -27 37q-3 2 -3 4t2.5 4t6.5 0q9 -4 21.5 -17.5t23.5 -29t14 -24.5t3 -18q0 -41 -71 -41q-56 0 -120 4t-126.5 9t-117.5 7q-21 2 -41.5 -5.5t-31.5 -17.5zM184 -227
q-3 1 -3 3l33 27q30 26 36 46q3 11 -7 19.5t-7 17.5q11 30 39 30q12 0 22 -7t10 -18q0 -3 -2 -9q-15 -42 -63 -80q-44 -33 -58 -29z" />
    <glyph glyph-name="uni013C" unicode="&#x13c;" horiz-adv-x="214" 
d="M100 -2q-30 0 -41 14.5t-11 35.5q0 28 12.5 60t20.5 50q-13 -14 -25 -27t-17 -19q-3 -4 -5 -4t-2 5q0 8 5 15q14 18 32 38t35 42q20 37 44.5 86.5t51 102t52 97t45.5 71.5q17 7 32.5 18t31 20.5t32.5 9.5q11 0 16.5 -6t7.5 -14q1 -3 1 -11q0 -23 -15.5 -56t-36 -64.5
t-35.5 -51.5q-40 -56 -82 -101.5t-75.5 -76t-48.5 -44.5q-7 -13 -16.5 -34.5t-16.5 -45t-7 -43.5q0 -17 8 -28.5t27 -11.5h6t7 1q17 3 37 19t40 37t36 40q7 8 13 15.5t8 10.5q7 -7 -0.5 -17.5l-12.5 -17.5q-7 -9 -20 -24.5t-30 -33.5q-19 -19 -47 -38t-57 -19zM142 228
q31 26 78.5 74.5t93.5 117.5q5 8 16.5 27t24 43.5t21.5 48t9 40.5q0 16 -9 16q-11 0 -29 -19q-21 -22 -47.5 -64.5t-55.5 -94.5t-55.5 -102t-46.5 -87zM-16 -227q-3 1 -3 3l33 27q30 26 36 46q3 11 -7 19.5t-7 17.5q11 30 39 30q12 0 22 -7t10 -18q0 -3 -2 -9
q-15 -42 -63 -80q-44 -33 -58 -29z" />
    <glyph glyph-name="Lcaron" unicode="&#x13d;" horiz-adv-x="547" 
d="M8 -7q-1 -1 -2 -1q-3 0 -3 9q0 6 3.5 12.5t13.5 7.5q28 2 53 19t44 40.5t27 44.5l92 230q19 47 43.5 91t63 72t97.5 28q23 0 46.5 -5.5t39.5 -17.5t16 -34v-6t-1 -6q-3 -16 -17.5 -32t-22.5 -40q-1 -7 -9 -7q-7 0 -3 9q8 12 12.5 28.5t4.5 33.5q0 26 -12 46t-41 20
q-26 0 -53 -15t-47 -52l-185 -341q-26 -48 -47.5 -68.5t-35.5 -25.5h241q48 0 89 3t50 15q10 14 10 30q0 25 -27 37q-3 2 -3 4t2.5 4t6.5 0q9 -4 21.5 -17.5t23.5 -29t14 -24.5t3 -18q0 -41 -71 -41q-56 0 -120 4t-126.5 9t-117.5 7q-21 2 -41.5 -5.5t-31.5 -17.5zM589 400
q-4 -3 -8 -5l-4 -2l1 7q1 2 1.5 3.5t5.5 5.5q14 13 24.5 28.5t14.5 33.5q3 11 -3.5 19.5t-17.5 10.5l3 10q5 0 12.5 4t10.5 7q4 2 7.5 6t5.5 4q18 -3 18 -22q0 -3 -0.5 -6.5t-1.5 -7.5q-6 -31 -25.5 -55t-43.5 -41z" />
    <glyph glyph-name="lcaron" unicode="&#x13e;" horiz-adv-x="214" 
d="M100 -2q-30 0 -41 14.5t-11 35.5q0 28 12.5 60t20.5 50q-13 -14 -25 -27t-17 -19q-3 -4 -5 -4t-2 5q0 8 5 15q14 18 32 38t35 42q20 37 44.5 86.5t51 102t52 97t45.5 71.5q17 7 32.5 18t31 20.5t32.5 9.5q11 0 16.5 -6t7.5 -14q1 -3 1 -11q0 -23 -15.5 -56t-36 -64.5
t-35.5 -51.5q-40 -56 -82 -101.5t-75.5 -76t-48.5 -44.5q-7 -13 -16.5 -34.5t-16.5 -45t-7 -43.5q0 -17 8 -28.5t27 -11.5h6t7 1q17 3 37 19t40 37t36 40q7 8 13 15.5t8 10.5q7 -7 -0.5 -17.5l-12.5 -17.5q-7 -9 -20 -24.5t-30 -33.5q-19 -19 -47 -38t-57 -19zM142 228
q31 26 78.5 74.5t93.5 117.5q5 8 16.5 27t24 43.5t21.5 48t9 40.5q0 16 -9 16q-11 0 -29 -19q-21 -22 -47.5 -64.5t-55.5 -94.5t-55.5 -102t-46.5 -87zM482 478q-4 -3 -8 -5l-4 -2l1 7q1 2 1.5 3.5t5.5 5.5q14 13 24.5 28.5t14.5 33.5q3 11 -3.5 19.5t-17.5 10.5l3 10
q5 0 12.5 4t10.5 7q4 2 7.5 6t5.5 4q18 -3 18 -22q0 -3 -0.5 -6.5t-1.5 -7.5q-6 -31 -25.5 -55t-43.5 -41z" />
    <glyph glyph-name="Lslash" unicode="&#x141;" horiz-adv-x="547" 
d="M8 -7q-1 -1 -2 -1q-3 0 -3 9q0 6 3.5 12.5t13.5 7.5q28 2 53 19t44 40.5t27 44.5l22 56q-22 -7 -48 -15t-45 -16q-2 -1 1 7t7.5 17t8.5 9q11 2 37.5 9t48.5 13l60 150q19 47 43.5 91t63 72t97.5 28q23 0 46.5 -5.5t39.5 -17.5t16 -34v-6t-1 -6q-3 -16 -17.5 -32
t-22.5 -40q-1 -7 -9 -7q-7 0 -3 9q8 12 12.5 28.5t4.5 33.5q0 26 -12 46t-41 20q-26 0 -53 -15t-47 -52l-136 -251q27 8 54 18t40 14q2 1 -0.5 -7.5t-7.5 -17t-9 -9.5l-91 -23l-35 -65q-26 -48 -47.5 -68.5t-35.5 -25.5h241q48 0 89 3t50 15q10 14 10 30q0 25 -27 37
q-3 2 -3 4t2.5 4t6.5 0q9 -4 21.5 -17.5t23.5 -29t14 -24.5t3 -18q0 -41 -71 -41q-56 0 -120 4t-126.5 9t-117.5 7q-21 2 -41.5 -5.5t-31.5 -17.5z" />
    <glyph glyph-name="lslash" unicode="&#x142;" horiz-adv-x="214" 
d="M100 -2q-30 0 -41 14.5t-11 35.5q0 28 12.5 60t20.5 50l-42 -46q-3 -4 -5 -4t-2 5q0 8 5 15q13 17 30.5 36t33.5 40q-23 0 -36 -0.5t-32 -2.5q-2 0 3 7t12 14t11 6q10 -2 21 -2.5t33 -0.5q20 38 43.5 86t49 97t49 90.5t42.5 66.5q17 7 32.5 18t31 20.5t32.5 9.5
q14 -1 19.5 -11t5.5 -22q0 -7 -1 -13t-3 -11q-19 -56 -51.5 -108t-68 -97t-64.5 -81l-36 -46l72 3q2 0 -3 -7t-12 -13.5t-11 -6.5q-9 0 -26.5 1t-37.5 2q-19 -23 -38.5 -45t-42.5 -43q-5 -13 -8.5 -23.5t-3.5 -24.5q0 -18 8 -30t29 -12h6t7 1q17 3 37 19t40 37t36 40l21 26
q7 -7 -0.5 -17.5l-12.5 -17.5q-7 -9 -20 -24.5t-30 -33.5q-19 -19 -47 -38t-57 -19zM351 569q-19 -19 -44.5 -58.5t-53.5 -89t-55.5 -101t-50.5 -96.5h30q24 30 44 59q28 37 60 81t60.5 93t43.5 99q3 11 3 19q0 13 -8 13q-10 0 -29 -19zM105 145q28 27 55 58q-7 1 -13 1h-11
z" />
    </font>
</defs>
</svg>
