<?xml version="1.0" standalone="no"?>
<!DOCTYPE svg PUBLIC "-//W3C//DTD SVG 1.1//EN" "http://www.w3.org/Graphics/SVG/1.1/DTD/svg11.dtd" >
<svg xmlns="http://www.w3.org/2000/svg" xmlns:xlink="http://www.w3.org/1999/xlink" version="1.1">
<metadata>
Created by FontForge 20201107 at Thu Oct 10 10:48:27 2024
 By 
Copyright (c) 2020, Aluyeah https://www.behance.net/aluyeahstudio
</metadata>
<defs>
<font id="Al_Murberry_Light" horiz-adv-x="1419" >
  <font-face 
    font-family="Al Murberry Light"
    font-weight="200"
    font-stretch="normal"
    units-per-em="2048"
    panose-1="2 0 3 3 0 0 0 0 0 0"
    ascent="1638"
    descent="-410"
    x-height="1229"
    cap-height="1229"
    bbox="-102.267 -179 2290 1359"
    underline-thickness="102"
    underline-position="-204"
    unicode-range="U+0020-E05D"
  />
<missing-glyph horiz-adv-x="1024" 
d="M102 0v1092h820v-1092h-820zM205 102h614v887h-614v-887z" />
    <glyph glyph-name="CA" unicode="CA" horiz-adv-x="2439" 
d="M569 1232q128 0 241.5 -34.5t193.5 -98.5v-193q-11 28 -32 57.5t-59 64t-85 61t-115 44t-144 17.5q-137 0 -254.5 -73.5t-185.5 -196.5t-68 -263t68 -263.5t185.5 -198t254.5 -74.5q95 0 173 25.5t128.5 68t81.5 82.5t52 84v-194q-58 -59 -171.5 -103.5t-263.5 -44.5
q-165 0 -305.5 83t-222.5 225.5t-82 309.5t82 308.5t222.5 224t305.5 82.5zM1721 1229l494 -1171q20 -47 48 -59h-157q11 21 -2 60l-124 294q-159 -94 -333 -64q-90 15 -204 67l-126 -297q-16 -38 -3 -60h-134q28 12 48 60l141 333q-7 3 -27.5 13t-31.5 16q-69 35 -109.5 54
t-99 39t-107.5 27q-111 16 -214 -27q-34 -15 -65 -41t-31 -50l-70 87q155 117 321 117q32 0 70 -5q57 -8 123.5 -31t105 -41t113.5 -56l54 -27zM1710 992l-235 -560q106 -49 186 -62q151 -26 286 59z" />
    <glyph glyph-name="CH" unicode="CH" horiz-adv-x="2439" 
d="M569 1232q128 0 241.5 -34.5t193.5 -98.5v-193q-11 28 -32 57.5t-59 64t-85 61t-115 44t-144 17.5q-137 0 -254.5 -73.5t-185.5 -196.5t-68 -263t68 -263.5t185.5 -198t254.5 -74.5q95 0 173 25.5t128.5 68t81.5 82.5t52 84v-194q-58 -59 -171.5 -103.5t-263.5 -44.5
q-165 0 -305.5 83t-222.5 225.5t-82 309.5t82 308.5t222.5 224t305.5 82.5zM1303 1229h137q-18 -31 -18 -60v-670l5 -2.5l5 -2.5q77 -38 111.5 -54.5t94.5 -39t108 -30.5q155 -26 293 63v736q0 31 -17 60h136q-17 -29 -17 -60v-1110q0 -31 17 -60h-136q17 29 17 60v280
q-145 -77 -307 -50q-116 20 -310 118v-348q0 -29 18 -60h-137q17 29 17 60v399q-145 70 -241 83q-111 16 -214 -27q-34 -15 -65 -41t-31 -50l-70 87q155 117 321 117q32 0 70 -5q103 -14 230 -73v620q0 31 -17 60z" />
    <glyph glyph-name="KA" unicode="KA" horiz-adv-x="2146" 
d="M0 1229h137q-17 -29 -17 -60v-808l605 808q11 14 14.5 33.5t-1.5 26.5h164q-37 -11 -74 -60l-404 -539q271 -439 728 -521q296 -52 589 53q79 29 105 71v-128q-163 -71 -339 -94.5t-371 7.5q-223 40 -422 171t-349 362l-245 -326v-166q0 -31 17 -60h-137q17 29 17 60
v1110q0 31 -17 60zM1727 1229h136q-17 -29 -17 -60v-759q0 -31 17 -60h-136q17 29 17 60v97q-61 -73 -147.5 -115t-184.5 -42q-180 0 -307.5 129t-127.5 311q0 119 58.5 220t158.5 160t218 59q98 0 184.5 -42t147.5 -115v97q0 31 -17 60zM1412 1147q-100 0 -177.5 -50.5
t-116.5 -131t-39 -175.5q0 -145 94.5 -251.5t238.5 -106.5t238 106.5t94 251.5q0 95 -39 175.5t-116 131t-177 50.5z" />
    <glyph glyph-name="KE" unicode="KE" horiz-adv-x="2002" 
d="M0 1229h137q-17 -29 -17 -60v-808l605 808q11 14 14.5 33.5t-1.5 26.5h164q-37 -11 -74 -60l-470 -626q273 -374 675 -438q310 -49 610 89q51 24 81 62v-125q-160 -82 -341.5 -114.5t-363.5 -2.5q-200 32 -384 144t-334 309l-181 -242v-166q0 -31 17 -60h-137
q17 29 17 60v1110q0 31 -17 60zM1420 1229q119 0 205 -62q99 -72 99 -192q0 -83 -52 -141q-44 -50 -123 -81q-52 -21 -153.5 -44.5t-133.5 -35.5q-62 -23 -73 -77t46 -101q37 -29 86.5 -46.5t98.5 -16.5q109 1 181 46t123 134v-136q-126 -126 -304 -126q-118 0 -218 59
t-158 160.5t-58 220.5q0 182 127 310.5t307 128.5zM1420 1147q-136 0 -234.5 -107.5t-98.5 -249.5q0 -63 22 -124q3 6 8 11q39 49 120 79q33 13 136 38t151 52q37 21 65 58t28 76q0 78 -56 123q-55 44 -141 44z" />
    <glyph glyph-name="KU" unicode="KU" horiz-adv-x="2088" 
d="M0 1229h137q-17 -29 -17 -60v-808l605 808q11 14 14.5 33.5t-1.5 26.5h164q-37 -11 -74 -60l-430 -573q277 -421 702 -491q305 -49 601 89q67 31 87 68v-128q-159 -83 -340 -116.5t-363 -3.5q-210 34 -401.5 158.5t-344.5 345.5l-219 -293v-166q0 -31 17 -60h-137
q17 29 17 60v1110q0 31 -17 60zM1133 1229h137q-17 -29 -17 -60v-536q0 -97 54.5 -149t155.5 -52q102 0 162.5 52.5t60.5 149.5v535q0 31 -17 60h136q-17 -29 -17 -60v-539q0 -95 -44.5 -160t-114.5 -93t-160 -27q-82 1 -152 28t-118.5 91.5t-48.5 156.5v543q0 31 -17 60z
" />
    <glyph glyph-name="KO" unicode="KO" horiz-adv-x="2150" 
d="M0 1229h137q-17 -29 -17 -60v-808l605 808q11 14 14.5 33.5t-1.5 26.5h164q-37 -11 -74 -60l-401 -534q83 -129 177 -228t191 -162t193.5 -99t197.5 -48q284 -34 557 113q79 43 107 91v-136q-151 -94 -324 -137t-351 -22q-222 26 -429 161.5t-377 388.5l-249 -332v-166
q0 -31 17 -60h-137q17 29 17 60v1110q0 31 -17 60zM1411 1229q181 0 310 -128.5t129 -310.5t-129 -311t-310 -129t-310 129t-129 311t129 310.5t310 128.5zM1411 1147q-103 0 -181 -50.5t-117 -131t-39 -175.5q0 -147 92.5 -252.5t244.5 -105.5t244.5 105.5t92.5 252.5
q0 95 -39 175.5t-117 131t-181 50.5z" />
    <glyph glyph-name="KC" unicode="KC" horiz-adv-x="2019" 
d="M0 1229h137q-17 -29 -17 -60v-808l605 808q11 14 14.5 33.5t-1.5 26.5h164q-37 -11 -74 -60l-470 -627q322 -397 760 -444q246 -27 496 64q82 30 106 72v-129q-301 -132 -612 -98q-218 24 -424.5 137t-382.5 323l-181 -242v-166q0 -31 17 -60h-137q17 29 17 60v1110
q0 31 -17 60zM1411 1229q182 0 309 -93v-163q-27 68 -107.5 121t-201.5 53q-103 0 -181 -50.5t-117 -131t-39 -175.5q0 -147 92.5 -252.5t244.5 -105.5q105 0 193.5 56t115.5 122v-163q-131 -97 -309 -97q-181 0 -310 129t-129 311t129 310.5t310 128.5z" />
    <glyph glyph-name="KG" unicode="KG" horiz-adv-x="2015" 
d="M0 1229h137q-17 -29 -17 -60v-808l605 808q11 14 14.5 33.5t-1.5 26.5h164q-37 -11 -74 -60l-474 -632q312 -392 736 -439q261 -30 524 80q67 29 101 69v-125q-308 -151 -635 -115q-212 24 -412 135t-371 319l-177 -236v-166q0 -31 17 -60h-137q17 29 17 60v1110
q0 31 -17 60zM1411 1229q180 0 304 -80v-153q-24 59 -113.5 105t-190.5 46q-103 0 -181 -50.5t-117 -131t-39 -175.5q0 -147 92.5 -252.5t244.5 -105.5q57 0 112.5 25t89.5 61v88q0 50 -1.5 73t-12 47t-31.5 37h147v-290q-128 -123 -304 -123q-181 0 -310 129t-129 311
t129 310.5t310 128.5z" />
    <glyph glyph-name="KI" unicode="KI" horiz-adv-x="1544" 
d="M0 1229h137q-17 -29 -17 -60v-808l605 808q11 14 14.5 33.5t-1.5 26.5h164q-37 -11 -74 -60l-488 -651q106 -194 247.5 -295.5t303.5 -123.5q128 -17 264 16q58 14 88 51v-123q-183 -60 -365 -35q-174 24 -328 130t-270 300l-160 -213v-166q0 -31 17 -60h-137
q17 29 17 60v1110q0 31 -17 60zM1124 1229h136q-17 -29 -17 -60v-759q0 -31 17 -60h-136q17 29 17 60v759q0 31 -17 60z" />
    <glyph glyph-name="KS" unicode="KS" horiz-adv-x="1957" 
d="M0 1229h137q-17 -29 -17 -60v-808l605 808q11 14 14.5 33.5t-1.5 26.5h164q-37 -11 -74 -60l-501 -668q304 -358 706 -403q266 -30 531 83q53 23 96 73v-130q-311 -153 -637 -117q-202 23 -394.5 126t-358.5 293l-150 -201v-166q0 -31 17 -60h-137q17 29 17 60v1110
q0 31 -17 60zM1351 1228q137 0 264 -69v-144q-30 54 -108.5 92.5t-155.5 38.5q-112 0 -174 -48t-62 -120q1 -51 40 -93t90.5 -66.5t113.5 -38.5q8 -2 46 -12t53.5 -14t42.5 -13.5t47 -19.5q49 -24 77 -58q33 -41 33 -97q0 -51 -29 -94t-76 -70q-87 -51 -204 -51q-38 0 -82 8
t-111 38t-122 79v156q57 -84 143 -141.5t172 -57.5q84 0 145.5 35.5t61.5 97.5q0 21 -11 33q-14 16 -42 30q-36 17 -170 52q-49 13 -84.5 25t-79 34.5t-71 49t-46.5 68t-19 91.5q0 111 89 195t229 84z" />
    <glyph glyph-name="RA" unicode="RA" horiz-adv-x="2224" 
d="M0 1229h428q172 0 293.5 -129.5t121.5 -314.5q-2 -157 -86 -273t-228 -150q260 -226 612 -263q181 -19 362.5 16t336.5 110q59 29 83 67v-128q-173 -92 -377.5 -135.5t-413.5 -21.5q-420 43 -724 343h-288v-291q0 -31 17 -60h-137q17 29 17 60v1110q0 31 -17 60z
M1804 1229h136q-17 -29 -17 -60v-759q0 -31 17 -60h-136q17 29 17 60v97q-61 -73 -147.5 -115t-184.5 -42q-180 0 -307.5 129t-127.5 311q0 119 58.5 220t158.5 160t218 59q98 0 184.5 -42t147.5 -115v97q0 31 -17 60zM120 1147v-715h308q124 0 216 97t95 256
q0 157 -84.5 259.5t-226.5 102.5h-308zM1489 1147q-100 0 -177.5 -50.5t-116.5 -131t-39 -175.5q0 -145 94.5 -251.5t238.5 -106.5t238 106.5t94 251.5q0 95 -39 175.5t-116 131t-177 50.5z" />
    <glyph glyph-name="RE" unicode="RE" horiz-adv-x="2070" 
d="M0 1229h428q172 0 293.5 -129.5t121.5 -314.5q-2 -156 -84 -271t-223 -150q245 -229 574 -265q298 -33 587 94q61 26 95 75v-132q-155 -78 -333 -113.5t-359 -15.5q-397 44 -681 343h-299v-291q0 -31 17 -60h-137q17 29 17 60v1110q0 31 -17 60zM1488 1229q119 0 205 -62
q99 -72 99 -192q0 -83 -52 -141q-44 -50 -123 -81q-52 -21 -153.5 -44.5t-133.5 -35.5q-62 -23 -73 -77t46 -101q84 -66 185 -65q99 1 177.5 45t126.5 128v-127q-126 -126 -304 -126q-118 0 -218 59t-158 160.5t-58 220.5q0 182 127 310.5t307 128.5zM1488 1147
q-136 0 -234.5 -107.5t-98.5 -249.5q0 -63 22 -124q3 6 8 11q39 49 120 79q33 13 136 38t151 52q37 21 65 58t28 76q0 78 -56 123q-55 44 -141 44zM120 1147v-715h308q124 0 216 97t95 256q0 157 -84.5 259.5t-226.5 102.5h-308z" />
    <glyph glyph-name="RU" unicode="RU" horiz-adv-x="2033" 
d="M0 1229h428q172 0 293.5 -129.5t121.5 -314.5q-2 -159 -87 -275.5t-232 -148.5q224 -225 528 -262q149 -17 297.5 13t278.5 98q73 38 88 71v-128q-148 -86 -323 -126.5t-352 -19.5q-367 43 -633 343h-288v-291q0 -31 17 -60h-137q17 29 17 60v1110q0 31 -17 60z
M1061 1229h136q-17 -29 -17 -60v-536q0 -97 55 -149t156 -52q102 0 162.5 52.5t60.5 149.5v535q0 29 -18 60h137q-17 -29 -17 -60v-539q0 -95 -44.5 -160t-114.5 -93t-160 -27q-82 1 -152 28t-118.5 91.5t-48.5 156.5v543q0 31 -17 60zM120 1147v-715h308q124 0 216 97
t95 256q0 157 -84.5 259.5t-226.5 102.5h-308z" />
    <glyph glyph-name="RO" unicode="RO" horiz-adv-x="2217" 
d="M0 1229h428q172 0 293.5 -129.5t121.5 -314.5q-2 -158 -86.5 -274t-229.5 -149q277 -244 650 -267q168 -11 334.5 24.5t311.5 105.5q62 30 95 80v-134q-163 -90 -356 -135.5t-391 -32.5q-447 29 -767 347h-284v-291q0 -31 17 -60h-137q17 29 17 60v1110q0 31 -17 60z
M1479 1229q181 0 310 -128.5t129 -310.5t-129 -311t-310 -129t-310 129t-129 311t129 310.5t310 128.5zM120 1147v-715h308q124 0 216 97t95 256q0 157 -84.5 259.5t-226.5 102.5h-308zM1479 1147q-103 0 -181 -50.5t-117 -131t-39 -175.5q0 -147 92.5 -252.5t244.5 -105.5
t244.5 105.5t92.5 252.5q0 95 -39 175.5t-117 131t-181 50.5z" />
    <glyph glyph-name="RC" unicode="RC" horiz-adv-x="2109" 
d="M0 1229h428q172 0 293.5 -129.5t121.5 -314.5q-2 -158 -86.5 -274t-229.5 -149q277 -244 650 -267q257 -16 509 73q34 12 49.5 18t40.5 22t33 34v-125q-311 -136 -638 -114q-446 29 -766 347h-285v-291q0 -31 17 -60h-137q17 29 17 60v1110q0 31 -17 60zM1500 1229
q182 0 309 -93v-163q-27 68 -107.5 121t-201.5 53q-103 0 -181 -50.5t-117 -131t-39 -175.5q0 -147 92.5 -252.5t244.5 -105.5q105 0 193.5 56t115.5 122v-163q-41 -41 -130.5 -69t-178.5 -28q-181 0 -310 129t-129 311q0 119 59 220t160 160t220 59zM120 1147v-715h308
q124 0 216 97t95 256q0 157 -84.5 259.5t-226.5 102.5h-308z" />
    <glyph glyph-name="RG" unicode="RG" horiz-adv-x="2113" 
d="M0 1229h428q172 0 293.5 -129.5t121.5 -314.5q-2 -157 -84.5 -272t-224.5 -150q278 -245 651 -268q261 -17 522 78q74 26 107 68v-125q-310 -134 -635 -113q-446 29 -766 347h-293v-291q0 -31 17 -60h-137q17 29 17 60v1110q0 31 -17 60zM1509 1229q181 0 305 -80v-153
q-24 59 -114 105t-191 46q-153 0 -244.5 -105t-91.5 -252t92 -252.5t244 -105.5q57 0 112.5 25t89.5 61v88q0 50 -1.5 73t-12 47t-31.5 37h148v-290q-128 -123 -305 -123q-181 0 -310 129t-129 311t129 310.5t310 128.5zM120 1147v-715h308q124 0 216 97t95 256
q0 157 -84.5 259.5t-226.5 102.5h-308z" />
    <glyph glyph-name="RI" unicode="RI" horiz-adv-x="1492" 
d="M0 1229h428q172 0 293.5 -129.5t121.5 -314.5q-2 -159 -87 -275.5t-231 -148.5q152 -242 394 -266q96 -9 189 19q25 6 52 20.5t33 28.5v-118q-139 -56 -283 -41q-140 13 -266 99t-219 247h-305v-291q0 -31 17 -60h-137q17 29 17 60v1110q0 31 -17 60zM1073 1229h137
q-17 -29 -17 -60v-759q0 -31 17 -60h-137q18 31 18 60v759q0 29 -18 60zM120 1147v-715h308q124 0 216 97t95 256q0 157 -84.5 259.5t-226.5 102.5h-308z" />
    <glyph glyph-name="RS" unicode="RS" horiz-adv-x="1996" 
d="M0 1229h428q172 0 293.5 -129.5t121.5 -314.5q-2 -158 -86 -274t-229 -149q252 -244 587 -267q251 -17 492 87q62 27 92 67v-127q-286 -141 -591 -119q-405 29 -697 347h-291v-291q0 -31 17 -60h-137q17 29 17 60v1110q0 31 -17 60zM1392 1228q137 0 264 -69v-144
q-30 54 -108.5 92.5t-155.5 38.5q-112 0 -174 -48t-62 -120q1 -51 40 -93t90.5 -66.5t113.5 -38.5q8 -2 46 -12t53.5 -14t42.5 -13.5t47 -19.5q49 -24 77 -58q33 -41 33 -97q0 -51 -29 -94t-76 -70q-87 -51 -205 -51q-38 0 -81.5 8t-110.5 38t-122 79v156q57 -84 143 -141.5
t171 -57.5q84 0 146 35.5t62 97.5q0 21 -11 33q-14 16 -42 30q-36 17 -170 52q-49 13 -84.5 25t-79 34.5t-71 49t-46.5 68t-19 91.5q0 111 89 195t229 84zM120 1147v-715h308q124 0 216 97t95 256q0 157 -84.5 259.5t-226.5 102.5h-308z" />
    <glyph glyph-name="LA" unicode="LA" horiz-adv-x="1523" 
d="M137 1229q-17 -29 -17 -60v-797v-171v-49q111 46 232 36q36 -3 79 -11t65 -13.5t80 -21.5t69 -19q90 -25 153 -36t152 -6t174 37q72 27 98 72v-118q-83 -40 -165 -58t-160 -15t-138 13.5t-135 31.5q-15 4 -56.5 15.5t-60.5 16.5t-51.5 13t-58.5 12t-51 6
q-142 11 -266 -68l-63 -40v1v60v206v903q0 31 -17 60h137zM1103 1229h136q-17 -29 -17 -60v-262v-497q0 -31 17 -60h-136q17 29 17 60v97q-61 -73 -147.5 -115t-184.5 -42q-180 0 -307.5 129t-127.5 311q0 119 58.5 220t158.5 160t218 59q98 0 184.5 -42t147.5 -115v97
q0 31 -17 60zM788 1147q-100 0 -177.5 -50.5t-116.5 -131t-39 -175.5q0 -145 94.5 -251.5t238.5 -106.5t238 106.5t94 251.5q0 95 -39 175.5t-116 131t-177 50.5z" />
    <glyph glyph-name="LE" unicode="LE" horiz-adv-x="1386" 
d="M0 1229h137q-17 -29 -17 -60v-797v-171v-65q42 13 86 18.5t76 6t80.5 -8t69.5 -13.5t75.5 -20t69.5 -19q74 -19 130.5 -26.5t138 1t166.5 42.5q26 10 55.5 30.5t40.5 39.5v-117q-109 -51 -215 -68.5t-178 -10t-158 29.5q-21 5 -80.5 21.5t-81.5 21.5t-71.5 12t-81 3.5
t-76.5 -15t-89 -34.5l-60 -30v0v60v180v26v903q0 31 -17 60zM804 1229q119 0 205 -62q99 -72 99 -192q0 -83 -52 -141q-44 -49 -124 -81q-52 -21 -153.5 -44.5t-133.5 -35.5q-62 -23 -72.5 -77t46.5 -101q37 -29 86.5 -46.5t98.5 -16.5q109 1 181 46t123 134v-136
q-126 -126 -304 -126q-118 0 -218 59t-158 160.5t-58 220.5q0 182 127 310.5t307 128.5zM804 1147q-136 0 -234.5 -107.5t-98.5 -249.5q0 -63 22 -124q4 8 7 11q39 49 121 79q33 13 136 38t151 52q37 21 64.5 58t27.5 76q0 78 -56 123q-55 44 -140 44z" />
    <glyph glyph-name="LU" unicode="LU" horiz-adv-x="1355" 
d="M0 1229h137q-17 -29 -17 -60v-797v-171v-56q96 35 204 25q40 -4 79.5 -12.5t99.5 -26t76 -21.5q71 -19 123 -27t125 -3t145 31q65 25 83 57v-110q-93 -41 -187.5 -53t-162 -4t-147.5 30q-21 6 -62.5 17t-65 17.5t-56 13t-59.5 9.5q-125 13 -236 -52l-62 -36v0v60v206v903
q0 31 -17 60zM400 1229h136q-17 -29 -17 -60v-536q0 -97 54.5 -149t155.5 -52q102 0 162.5 52.5t60.5 149.5v535q0 31 -17 60h137q-17 -29 -17 -60v-262v-277q0 -95 -44.5 -160t-114.5 -93t-160 -27q-82 1 -152 28t-118.5 91.5t-48.5 156.5v543q0 31 -17 60z" />
    <glyph glyph-name="LO" unicode="LO" horiz-adv-x="1550" 
d="M0 1229h137q-17 -29 -17 -60v-797v-171v-61q35 13 71.5 21t64.5 12.5t67.5 2t59.5 -3.5t64 -10t57 -12t61.5 -16t56.5 -15q69 -18 117.5 -26t116.5 -10.5t140.5 13.5t152.5 51q75 33 102 79v-121q-99 -50 -191.5 -76t-175.5 -26.5t-145 8.5t-137 28q-17 4 -65 17
t-65.5 17.5t-59.5 13t-64 8.5t-60.5 -0.5t-67.5 -8t-66.5 -21t-75.5 -34.5l-61 -33v2v60v206v903q0 31 -17 60zM812 1229q180 0 308.5 -127t130.5 -306v-12q-2 -179 -130.5 -306.5t-308.5 -127.5q-119 0 -220.5 59t-160.5 160.5t-59 220.5q0 181 129 310t311 129zM812 1147
q-103 0 -181 -50.5t-117 -131t-39 -175.5q0 -147 92.5 -252.5t244.5 -105.5t244 105.5t92 252.5t-91.5 252t-244.5 105z" />
    <glyph glyph-name="LC" unicode="LC" horiz-adv-x="1435" 
d="M0 1229h137q-17 -29 -17 -60v-797v-171v-61q35 13 71.5 21t64.5 12.5t67.5 2t59.5 -3.5t64 -10t57 -12t61.5 -16t56.5 -15q74 -19 124 -28t125 -8.5t149 19.5q95 24 116 69v-117q-103 -38 -205.5 -47.5t-172.5 0t-156 32.5q-17 4 -65 17t-65.5 17.5t-59.5 13t-64 8.5
t-60.5 -0.5t-67.5 -8t-66.5 -21t-75.5 -34.5l-61 -33v2v60v206v903q0 31 -17 60zM827 1229q182 0 309 -93v-163q-27 68 -107.5 121t-201.5 53q-103 0 -181 -50.5t-117 -131t-39 -175.5q0 -147 92.5 -252.5t244.5 -105.5q105 0 193.5 56t115.5 122v-163q-131 -97 -309 -97
q-181 0 -310.5 129t-129.5 311q0 181 129 310t311 129z" />
    <glyph glyph-name="LG" unicode="LG" horiz-adv-x="1456" 
d="M0 1229h137q-17 -29 -17 -60v-797v-171v-61q35 13 71.5 21t64.5 12.5t67.5 2t59.5 -3.5t64 -10t57 -12t61.5 -16t56.5 -15q58 -15 99 -23t97 -13t114 2t120 26q86 26 104 67v-116q-108 -43 -214.5 -54t-178 -1.5t-161.5 32.5q-17 4 -65 17t-65.5 17.5t-59.5 13t-64 8.5
t-60.5 -0.5t-67.5 -8t-66.5 -21t-75.5 -34.5l-61 -33v2v60v164v16v26v903q0 31 -17 60zM852 1229q180 0 304 -80v-153q-24 59 -113.5 105t-190.5 46q-103 0 -181 -50.5t-117 -131t-39 -175.5q0 -147 92.5 -252.5t244.5 -105.5q57 0 112.5 25t89.5 61v88q0 50 -1.5 73t-12 47
t-31.5 37h147v-145v-145q-128 -123 -304 -123q-181 0 -310 129t-129 311q0 119 59 220t160 160t220 59z" />
    <glyph glyph-name="LI" unicode="LI" horiz-adv-x="831" 
d="M137 1229q-17 -29 -17 -60v-1088h349q30 0 59 17v-99h-528q17 29 17 60v1110q0 31 -17 60h137zM412 1229h137q-18 -31 -18 -60v-759q0 -29 18 -60h-137q17 29 17 60v759q0 31 -17 60z" />
    <glyph glyph-name="LS" unicode="LS" horiz-adv-x="1335" 
d="M0 1229h137q-17 -29 -17 -60v-797v-171v-59q63 24 125.5 32t121.5 0t103 -19t103 -29q17 -5 25 -8q68 -20 110.5 -29t105 -7t123.5 24q79 31 100 71v-115q-66 -33 -129.5 -48t-123.5 -12.5t-106 11.5t-104 26q-12 4 -51.5 16t-53 15.5t-48.5 12.5t-53 10t-50.5 4
t-56.5 -1.5t-55.5 -11t-62.5 -20t-65 -31.5l-61 -33v0v60v166v16v24v903q0 31 -17 60zM730 1228q136 0 263 -69v-144q-30 54 -108 92.5t-155 38.5q-112 0 -174 -48t-62 -120q1 -51 39.5 -93t90 -66.5t113.5 -38.5q8 -2 46 -12t53.5 -14t42.5 -13.5t47 -19.5q49 -24 77 -58
q34 -42 34 -97q0 -51 -29.5 -94t-76.5 -70q-87 -51 -204 -51q-38 0 -82 8t-111 38t-122 79v156q57 -84 143 -141.5t172 -57.5q84 0 146 35.5t62 97.5q0 20 -12 33q-15 17 -41 30q-35 17 -171 52q-49 13 -84.5 25t-79 34.5t-70.5 49t-46 68t-19 91.5q0 111 89 195t229 84z
" />
    <glyph glyph-name="LL" unicode="LL" horiz-adv-x="1140" 
d="M137 1229q-17 -29 -17 -60v-1088h658q31 0 60 17v-99h-838q17 29 17 60v1110q0 31 -17 60h137zM549 1229q-18 -31 -18 -60v-737h247q31 0 60 17v-99h-426q17 29 17 60v759q0 31 -17 60h137z" />
    <glyph glyph-name="QA" unicode="QA" horiz-adv-x="2574" 
d="M569 1232q165 0 305.5 -82.5t222 -224t81.5 -308.5q0 -192 -108 -349q169 -60 180 -64q172 -61 306.5 -96.5t262.5 -41.5q202 -10 372 65q23 10 47.5 29.5t34.5 40.5v-132q-210 -106 -459 -95q-139 7 -278 43.5t-317 99.5q-132 48 -211 74q-85 -89 -198.5 -138.5
t-240.5 -49.5q-165 0 -305.5 82t-222.5 223.5t-82 308.5t82 308.5t222.5 224t305.5 82.5zM2154 1229h136q-17 -29 -17 -60v-759q0 -31 17 -60h-136q17 29 17 60v97q-61 -73 -148 -115t-185 -42q-118 0 -218 59t-158 160.5t-58 220.5q0 182 127 310.5t307 128.5q98 0 185 -42
t148 -115v97q0 31 -17 60zM569 1150q-137 0 -254.5 -73.5t-185.5 -196.5t-68 -263q0 -109 42.5 -210t117.5 -178q159 141 382 141q49 0 99 -6q107 -13 273 -65q101 144 101 318q0 105 -40 203t-108 170.5t-162 116t-197 43.5zM1838 1147q-100 0 -177 -50.5t-116 -131
t-39 -175.5q0 -145 94 -251.5t238 -106.5t238.5 106.5t94.5 251.5q0 95 -39 175.5t-116.5 131t-177.5 50.5zM603 278q-183 2 -312 -110q118 -84 278 -84q202 0 341 139q-122 36 -220 49q-45 6 -87 6z" />
    <glyph glyph-name="QE" unicode="QE" horiz-adv-x="2433" 
d="M569 1232q165 0 305.5 -82.5t222 -224t81.5 -308.5q0 -193 -110 -352q17 -6 121 -44q158 -57 282 -89t244 -36q197 -6 369 76q48 23 69 61v-129q-207 -108 -441 -100q-131 4 -260.5 37.5t-293.5 93.5q-91 33 -152 54q-85 -88 -198 -137t-239 -49q-165 0 -305.5 82
t-222.5 223.5t-82 308.5t82 308.5t222.5 224t305.5 82.5zM1850 1229q118 0 204 -62q99 -72 99 -192q0 -83 -52 -141q-44 -50 -123 -81q-52 -21 -153.5 -44.5t-133.5 -35.5q-62 -23 -72.5 -77t46.5 -101q37 -29 86.5 -46.5t98.5 -16.5q109 1 180.5 46t122.5 134v-136
q-126 -126 -303 -126q-180 0 -307.5 129t-127.5 311q0 119 58.5 220t158.5 160t218 59zM569 1150q-137 0 -254.5 -73.5t-185.5 -196.5t-68 -263q0 -109 42.5 -210t117.5 -178q158 142 368 145h12q36 0 81 -5q123 -14 292 -71q102 145 102 319q0 105 -40 203t-108 170.5
t-162 116t-197 43.5zM1850 1147q-136 0 -234.5 -107.5t-98.5 -249.5q0 -63 22 -124q4 8 7 11q39 49 121 79q33 13 136 38t151 52q37 21 64.5 58t27.5 76q0 78 -56 123q-55 44 -140 44zM591 282q-170 -2 -300 -114q118 -84 278 -84q201 0 341 138q-140 46 -238 56
q-37 4 -81 4z" />
    <glyph glyph-name="QU" unicode="QU" horiz-adv-x="2373" 
d="M569 1232q165 0 305.5 -82.5t222 -224t81.5 -308.5q0 -201 -117 -362q11 -4 41 -16t47 -18q149 -57 266 -89t232 -36q177 -6 339 67q26 12 52 33t35 44v-136q-204 -108 -429 -100q-127 4 -250.5 38t-277.5 93q-23 9 -66 25.5t-53 20.5q-84 -84 -194.5 -131t-233.5 -47
q-165 0 -305.5 82t-222.5 223.5t-82 308.5t82 308.5t222.5 224t305.5 82.5zM1418 1229h137q-17 -29 -17 -60v-536q0 -97 54.5 -149t155.5 -52q102 0 162.5 52.5t60.5 149.5v535q0 31 -17 60h136q-17 -29 -17 -60v-539q0 -95 -44.5 -160t-114.5 -93t-160 -27q-82 1 -152 28
t-118.5 91.5t-48.5 156.5v543q0 31 -17 60zM569 1150q-137 0 -254.5 -73.5t-185.5 -196.5t-68 -263q0 -109 42.5 -210t117.5 -178q155 140 359 145h12q35 0 78 -5q126 -15 298 -79q108 150 108 327q0 105 -40 203t-108 170.5t-162 116t-197 43.5zM582 282q-162 -2 -291 -114
q118 -84 278 -84q197 0 334 131q-146 52 -244 63q-35 4 -77 4z" />
    <glyph glyph-name="QO" unicode="QO" horiz-adv-x="2586" 
d="M569 1232q165 0 305.5 -82.5t222 -224t81.5 -308.5q0 -187 -103 -342q34 -11 155 -53q169 -57 300 -89.5t256 -36.5q216 -7 394 82q82 42 106 95v-141q-230 -136 -503 -128q-136 4 -272.5 37.5t-309.5 92.5q-169 58 -187 64q-85 -92 -200.5 -143.5t-244.5 -51.5
q-165 0 -305.5 82t-222.5 223.5t-82 308.5t82 308.5t222.5 224t305.5 82.5zM1847 1229q181 0 310 -128.5t129 -310.5t-129 -311t-310 -129t-310 129t-129 311t129 310.5t310 128.5zM569 1150q-137 0 -254.5 -73.5t-185.5 -196.5t-68 -263q0 -109 42.5 -210t117.5 -178
q158 142 377 145h12q38 0 85 -5q126 -14 284 -63q97 143 97 311q0 105 -40 203t-108 170.5t-162 116t-197 43.5zM1847 1147q-103 0 -181 -50.5t-117 -131t-39 -175.5q0 -147 92.5 -252.5t244.5 -105.5t244.5 105.5t92.5 252.5q0 95 -39 175.5t-117 131t-181 50.5zM600 282
q-177 -2 -309 -114q118 -84 278 -84q206 0 347 144q-130 39 -231 50q-39 4 -85 4z" />
    <glyph glyph-name="QC" unicode="QC" horiz-adv-x="2439" 
d="M569 1232q165 0 305.5 -82.5t222 -224t81.5 -308.5q0 -187 -103 -342q34 -11 155 -53q169 -57 300 -89.5t256 -36.5q145 -5 276 35q19 6 29 10t25.5 15.5t22.5 26.5v-122q-168 -63 -356 -57q-136 4 -272.5 37.5t-309.5 92.5q-169 58 -187 64q-85 -92 -200.5 -143.5
t-244.5 -51.5q-165 0 -305.5 82t-222.5 223.5t-82 308.5t82 308.5t222.5 224t305.5 82.5zM1830 1229q182 0 309 -93v-163q-27 68 -107.5 121t-201.5 53q-103 0 -181 -50.5t-117 -131t-39 -175.5q0 -147 92.5 -252.5t244.5 -105.5q105 0 193.5 56t115.5 122v-163
q-131 -97 -309 -97q-119 0 -220.5 59t-160.5 160.5t-59 220.5q0 181 129 310t311 129zM569 1150q-137 0 -254.5 -73.5t-185.5 -196.5t-68 -263q0 -109 42.5 -210t117.5 -178q158 142 377 145h12q38 0 85 -5q126 -14 284 -63q97 143 97 311q0 105 -40 203t-108 170.5
t-162 116t-197 43.5zM600 282q-177 -2 -309 -114q118 -84 278 -84q206 0 347 144q-130 39 -231 50q-39 4 -85 4z" />
    <glyph glyph-name="QG" unicode="QG" horiz-adv-x="2433" 
d="M569 1232q165 0 305.5 -82.5t222 -224t81.5 -308.5q0 -192 -109 -350q21 -8 63 -23.5t63 -22.5q158 -56 284 -88.5t247 -36.5q172 -5 322 55q72 28 86 64v-127q-192 -91 -411 -84q-132 4 -261.5 37.5t-296.5 93.5q-42 15 -158 56q-85 -89 -198 -138.5t-240 -49.5
q-165 0 -305.5 82t-222.5 223.5t-82 308.5t82 308.5t222.5 224t305.5 82.5zM1830 1229q180 0 304 -80v-153q-24 59 -113.5 105t-190.5 46q-103 0 -181 -50.5t-117 -131t-39 -175.5q0 -147 92.5 -252.5t244.5 -105.5q57 0 112 25t89 61v88q0 50 -1.5 73t-12 47t-31.5 37h148
v-290q-128 -123 -304 -123q-119 0 -220.5 59t-160.5 160.5t-59 220.5q0 181 129 310t311 129zM569 1150q-137 0 -254.5 -73.5t-185.5 -196.5t-68 -263q0 -109 42.5 -210t117.5 -178q158 142 369 145h12q37 0 82 -5q118 -14 291 -70q101 144 101 318q0 105 -40 203
t-108 170.5t-162 116t-197 43.5zM592 282q-171 -2 -301 -114q118 -84 278 -84q203 0 342 139q-144 45 -237 55q-37 4 -82 4z" />
    <glyph glyph-name="QI" unicode="QI" horiz-adv-x="1880" 
d="M569 1232q165 0 305.5 -82.5t222 -224t81.5 -308.5q0 -133 -53 -251.5t-148 -204.5q82 -33 147.5 -49.5t155.5 -17.5t182 26q93 28 117 78v-134q-103 -40 -200 -54t-185.5 -1t-154.5 33t-147 54q-148 -93 -323 -93q-165 0 -305.5 82t-222.5 223.5t-82 308.5t82 308.5
t222.5 224t305.5 82.5zM1459 1229h137q-17 -29 -17 -60v-759q0 -31 17 -60h-137q17 29 17 60v759q0 31 -17 60zM569 1150q-137 0 -254.5 -73.5t-185.5 -196.5t-68 -263q0 -110 43 -212t119 -179q143 77 286 77q47 0 88 -7q48 -7 103.5 -25t88.5 -31t96 -41q89 78 140 188
t51 230q0 105 -40 203t-108 170.5t-162 116t-197 43.5zM508 211q-103 0 -208 -49q113 -78 269 -78q132 0 228 53q-129 55 -214 68q-36 6 -75 6z" />
    <glyph glyph-name="QS" unicode="QS" horiz-adv-x="2342" 
d="M569 1232q165 0 305.5 -82.5t222 -224t81.5 -308.5q0 -185 -100 -337q16 -7 49 -21.5t50 -21.5q150 -64 260.5 -99.5t220.5 -42.5q155 -10 294 48q65 26 92 77v-135q-188 -93 -391 -82q-86 5 -182 30t-163 50.5t-167 68.5q-11 5 -122 52q-86 -95 -202.5 -148t-247.5 -53
q-165 0 -305.5 82t-222.5 223.5t-82 308.5t82 308.5t222.5 224t305.5 82.5zM1737 1228q136 0 263 -69v-144q-30 54 -108 92.5t-155 38.5q-112 0 -174 -48t-62 -120q1 -51 39.5 -93t90 -66.5t113.5 -38.5q10 -3 46.5 -12t53 -14t43.5 -14t47 -19q48 -23 76 -58q34 -42 34 -97
q0 -51 -29 -94t-76 -70q-87 -51 -205 -51q-38 0 -81.5 8t-110.5 38t-122 79v156q57 -84 143 -141.5t171 -57.5q84 0 146 35.5t62 97.5q0 21 -11 33q-14 16 -42 30q-35 17 -171 52q-49 13 -84.5 25t-79 34.5t-70.5 49t-46 68t-19 91.5q0 111 89 195t229 84zM569 1150
q-137 0 -254.5 -73.5t-185.5 -196.5t-68 -263q0 -108 42.5 -209.5t117.5 -178.5q188 172 415 170q22 0 62 -4q119 -12 288 -78q90 141 90 300q0 105 -40 203t-108 170.5t-162 116t-197 43.5zM622 307q-177 -2 -331 -139q116 -84 278 -84q215 0 359 156q-141 53 -240 63
q-44 4 -66 4z" />
    <glyph glyph-name="TA" unicode="TA" horiz-adv-x="1841" 
d="M-41 1229h1581v-74v-25q-29 17 -60 17h-1058v-1088q0 -31 17 -60h-136q17 29 17 60v1028q0 24 4 39t8 18l5 3h-318q-31 0 -60 -17v17v82zM1421 878h136q-17 -29 -17 -59v-759q0 -31 17 -60h-136q17 29 17 60v97q-61 -73 -148 -115t-185 -42q-180 0 -307 128.5t-127 310.5
t127 310.5t307 128.5q98 0 185 -41.5t148 -114.5v97q0 30 -17 59zM1105 796q-100 0 -177 -50.5t-116 -131t-39 -175.5q0 -145 94 -251t238 -106q96 0 173.5 50.5t118.5 131.5t41 175q0 95 -39 175.5t-116.5 131t-177.5 50.5z" />
    <glyph glyph-name="TE" unicode="TE" horiz-adv-x="1662" 
d="M-41 1229h1442v-74v-25q-29 17 -60 17h-919v-1088q0 -31 17 -60h-136q17 29 17 60v1028q0 24 4 39t8 18l5 3h-318q-31 0 -60 -17v17v82zM1097 878q121 0 205 -61q99 -72 99 -192q0 -83 -52 -141q-44 -49 -124 -81q-52 -21 -153.5 -44.5t-133.5 -35.5q-62 -23 -72.5 -77.5
t46.5 -101.5q36 -29 85.5 -46t99.5 -16q109 1 181 46t123 134v-137q-125 -125 -304 -125q-180 0 -307 128.5t-127 310.5t127 310.5t307 128.5zM1097 797q-136 0 -234.5 -107.5t-98.5 -250.5q0 -62 22 -123q4 8 7 11q39 49 121 79q33 13 136 38t151 52q37 21 64.5 58t27.5 76
q0 77 -56 122t-140 45z" />
    <glyph glyph-name="TU" unicode="TU" horiz-adv-x="1660" 
d="M-41 1229h1402v-74v-25q-29 17 -60 17h-879v-1088q0 -31 17 -60h-136q17 29 17 60v1028q0 24 4 39t8 18l5 3h-318q-31 0 -60 -17v17v82zM706 878h136q-17 -29 -17 -59v-537q0 -97 54.5 -148.5t155.5 -51.5q102 0 162.5 52.5t60.5 149.5v535q0 30 -17 59h137
q-17 -29 -17 -59v-539q0 -95 -44.5 -160t-114.5 -93t-160 -27q-82 1 -152 28t-118.5 91.5t-48.5 156.5v543q0 30 -17 59z" />
    <glyph glyph-name="TO" unicode="TO" horiz-adv-x="1822" 
d="M-41 1229h1600v-74v-25q-29 17 -59 17h-1078v-1088q0 -31 17 -60h-136q17 29 17 60v1028q0 24 4 39t8 18l5 3h-318q-31 0 -60 -17v17v82zM1120 878q182 0 310.5 -129t128.5 -310t-128.5 -310t-310.5 -129t-310.5 129t-128.5 310t128.5 310t310.5 129zM1120 796
q-103 0 -181 -50.5t-117 -131t-39 -175.5q0 -147 92.5 -252t244.5 -105t244.5 105t92.5 252q0 95 -39 175.5t-117 131t-181 50.5z" />
    <glyph glyph-name="TC" unicode="TC" horiz-adv-x="1705" 
d="M-41 1229h1484v-74v-25q-29 17 -59 17h-962v-1088q0 -31 17 -60h-136q17 29 17 60v1028q0 24 4 39t8 18l5 3h-318q-31 0 -60 -17v17v82zM1134 878q184 0 309 -92v-163q-27 68 -107.5 120.5t-201.5 52.5q-153 0 -244.5 -105t-91.5 -252t92 -252t244 -105q105 0 193.5 55.5
t115.5 121.5v-162q-131 -97 -309 -97q-182 0 -310.5 129t-128.5 310t128.5 310t310.5 129z" />
    <glyph glyph-name="TG" unicode="TG" horiz-adv-x="1708" 
d="M-41 1229h1486v-74v-25q-29 17 -59 17h-964v-1088q0 -31 17 -60h-136q17 29 17 60v1028q0 24 4 39t8 18l5 3h-318q-31 0 -60 -17v17v82zM1141 878q180 0 304 -80v-152q-24 59 -113.5 104.5t-190.5 45.5q-153 0 -244.5 -105t-91.5 -252t92 -252t244 -105q57 0 112.5 25
t89.5 61v87q0 51 -1.5 73.5t-12 47t-31.5 37.5h147v-290q-128 -123 -304 -123q-181 0 -310 129t-129 310t129 310t310 129z" />
    <glyph glyph-name="TS" unicode="TS" horiz-adv-x="1576" 
d="M-41 1229h1355v-74v-25q-29 17 -60 17h-832v-1088q0 -31 17 -60h-136q17 29 17 60v1028q0 24 4 39t8 18l5 3h-318q-31 0 -60 -17v17v82zM1007 878q134 0 263 -70v-143q-30 54 -108 92.5t-155 38.5q-112 0 -174 -48t-62 -121q1 -51 40 -93t90 -66t113 -38q8 -2 46 -12
t53.5 -14t42.5 -13.5t47 -19.5q49 -24 77 -58q34 -42 34 -97q0 -51 -29 -94t-76 -70q-87 -51 -205 -51q-39 0 -82 7.5t-110 37.5t-122 79v156q57 -83 142.5 -140.5t171.5 -57.5q84 0 146 35.5t62 97.5q0 21 -11 33q-13 14 -42 29q-39 19 -171 53q-49 13 -84.5 25t-79 34.5
t-70.5 49t-46 68t-19 91.5q0 111 89 195t229 84z" />
    <glyph glyph-name="TI" unicode="TI" horiz-adv-x="1083" 
d="M-41 1229h824v-74v-25q-29 17 -60 17h-301v-1088q0 -31 17 -60h-136q17 29 17 60v1028q0 24 4 39t8 18l5 3h-318q-31 0 -60 -17v17v82zM663 878h137q-17 -29 -17 -59v-759q0 -31 17 -60h-137q18 31 18 60v759q0 28 -18 59z" />
    <glyph glyph-name="IT" unicode="IT" horiz-adv-x="1081" 
d="M17 1229h824v-74v-25q-29 17 -60 17h-301v-1088q0 -31 17 -60h-136q17 29 17 60v1028q0 24 4 39t8 18l5 3h-318q-31 0 -60 -17v17v82zM0 878h137q-17 -29 -17 -59v-759q0 -31 17 -60h-137q17 29 17 60v759q0 30 -17 59z" />
    <glyph glyph-name="ST" unicode="ST" horiz-adv-x="1574" 
d="M-20 1229h1355v-74v-25q-29 17 -60 17h-301v-1088q0 -31 17 -60h-137q17 29 17 60v1028q0 24 4.5 39t8.5 18l4 3h-849q-30 0 -59 -17v17v82zM297 878q135 0 264 -70v-143q-30 54 -108.5 92.5t-155.5 38.5q-112 0 -173.5 -48t-61.5 -121q1 -51 40 -93t90 -66t113 -38
q8 -2 46 -12t53.5 -14t42.5 -13.5t47 -19.5q49 -24 77 -58q34 -42 34 -97q0 -51 -29.5 -94t-76.5 -70q-87 -51 -204 -51q-65 0 -150.5 27t-164.5 97v156q57 -83 143 -140.5t172 -57.5q84 0 146 35.5t62 97.5q0 20 -12 33q-14 15 -41 29q-39 19 -171 53q-49 13 -84.5 25
t-79 34.5t-70.5 49t-46 68t-19 91.5q0 112 89 195.5t228 83.5z" />
    <glyph glyph-name="GT" unicode="GT" horiz-adv-x="1705" 
d="M-20 1229h1486v-74v-25q-29 17 -60 17h-301v-1088q0 -31 17 -60h-136q17 29 17 60v1028q0 24 4.5 39t8.5 18l4 3h-981q-30 0 -59 -17v17v82zM419 878q180 0 304 -80v-152q-24 59 -113.5 104.5t-190.5 45.5q-103 0 -181 -50.5t-117 -131t-39 -175.5q0 -147 92.5 -252
t244.5 -105q57 0 112 25t89 61v87q0 51 -1.5 73.5t-12 47t-31.5 37.5h148v-290q-128 -123 -304 -123q-181 0 -310 129t-129 310t129 310t310 129z" />
    <glyph glyph-name="CT" unicode="CT" horiz-adv-x="1703" 
d="M-20 1229h1484v-74v-25q-29 17 -60 17h-301v-1088q0 -31 17 -60h-136q17 29 17 60v1028q0 24 4.5 39t8.5 18l4 3h-979q-30 0 -59 -17v17v82zM419 878q184 0 309 -92v-163q-27 68 -107.5 120.5t-201.5 52.5q-103 0 -181 -50.5t-117 -131t-39 -175.5q0 -147 92.5 -252
t244.5 -105q105 0 193.5 55.5t115.5 121.5v-162q-131 -97 -309 -97q-181 0 -310 129t-129 310t129 310t310 129z" />
    <glyph glyph-name="OT" unicode="OT" horiz-adv-x="1820" 
d="M-20 1229h1600v-74v-25q-29 17 -60 17h-301v-1088q0 -31 17 -60h-137q17 29 17 60v1028q0 24 4.5 39t9.5 18l4 3h-1095q-30 0 -59 -17v17v82zM419 878q181 0 310 -129t129 -310t-129 -310t-310 -129t-310 129t-129 310t129 310t310 129zM419 796q-103 0 -181 -50.5
t-117 -131t-39 -175.5q0 -147 92.5 -252t244.5 -105t244.5 105t92.5 252q0 95 -39 175.5t-117 131t-181 50.5z" />
    <glyph glyph-name="UT" unicode="UT" horiz-adv-x="1658" 
d="M17 1229h1402v-82v-17q-29 17 -60 17h-318q17 -6 17 -60v-1028q0 -31 17 -60h-136q17 29 17 60v1088h-879q-31 0 -60 -17v25v74zM0 878h137q-17 -29 -17 -59v-535q0 -97 60 -149.5t162 -52.5q101 0 156 51.5t55 148.5v537q0 30 -17 59h136q-17 -29 -17 -59v-543
q0 -92 -48.5 -156.5t-118.5 -91.5t-152 -28q-90 -1 -160 27t-114.5 93t-44.5 160v539q0 30 -17 59z" />
    <glyph glyph-name="AT" unicode="AT" horiz-adv-x="1818" 
d="M-20 1229h1598v-74v-25q-29 17 -60 17h-301v-1088q0 -31 17 -60h-137q17 29 17 60v1028q0 24 4.5 39t9.5 18l4 3h-1093q-30 0 -59 -17v17v82zM729 878h137q-17 -29 -17 -59v-759q0 -31 17 -60h-137q17 29 17 60v97q-61 -73 -147.5 -115t-184.5 -42q-180 0 -307 128.5
t-127 310.5t127 310.5t307 128.5q98 0 184.5 -41.5t147.5 -114.5v97q0 30 -17 59zM414 796q-100 0 -177 -50.5t-116 -131t-39 -175.5q0 -145 94 -251t238 -106t238 106t94 251q0 95 -39 175.5t-116 131t-177 50.5z" />
    <glyph glyph-name="ET" unicode="ET" horiz-adv-x="1660" 
d="M-20 1229h1441v-74v-25q-29 17 -60 17h-301v-1088q0 -31 17 -60h-136q17 29 17 60v1028q0 24 4 39t8 18l5 3h-936q-30 0 -59 -17v17v82zM414 878q120 0 204 -61q99 -72 99 -192q0 -83 -52 -141q-44 -50 -123 -81q-52 -21 -153.5 -44.5t-133.5 -35.5q-62 -23 -72.5 -77.5
t46.5 -101.5q36 -29 85.5 -46t99.5 -16q109 1 180.5 46t122.5 134v-137q-125 -125 -303 -125q-180 0 -307 128.5t-127 310.5t127 310.5t307 128.5zM414 797q-136 0 -234.5 -107.5t-98.5 -250.5q0 -62 22 -123q4 8 7 11q39 49 121 79q33 13 136 38t151 52q37 21 64.5 58
t27.5 76q0 77 -56 122t-140 45z" />
    <glyph glyph-name="TT" unicode="TT" horiz-adv-x="1447" 
d="M-41 1229h424h310h514v-74v-25q-29 17 -59 17h-302v-1088q0 -29 18 -60h-137q17 29 17 60v1088h-51h-250q-11 0 -21 -3v-1085q0 -31 17 -60h-136q17 29 17 60v1028q0 24 4 39t8 18l5 3h-318q-31 0 -60 -17v17v82z" />
    <glyph glyph-name="o.4" unicode="o&#x2e;&#x34;" 
d="M569 1232q165 0 305.5 -82.5t222 -224t81.5 -308.5q0 -125 -48.5 -238.5t-130 -196t-194 -131t-236.5 -48.5q-165 0 -305.5 82t-222.5 223.5t-82 308.5t82 308.5t222.5 224t305.5 82.5zM569 1150q-137 0 -254.5 -73.5t-185.5 -196.5t-68 -263t68 -263t185.5 -196.5
t254.5 -73.5q103 0 197 43.5t162 116t108 170.5t40 203t-40 203t-108 170.5t-162 116t-197 43.5zM569 704q34 -63 72 -87q-38 -24 -72 -87q-33 62 -73 87q40 24 73 87z" />
    <glyph glyph-name="a.2" unicode="a&#x2e;&#x32;" horiz-adv-x="1146" 
d="M729 1229h137q-17 -29 -17 -60v-759q0 -31 17 -60h-137q17 29 17 60v97q-61 -73 -147.5 -115t-184.5 -42q-118 0 -218 59t-158 160.5t-58 220.5q0 182 127 310.5t307 128.5q98 0 184.5 -42t147.5 -115v97q0 31 -17 60zM414 1147q-100 0 -177 -50.5t-116 -131t-39 -175.5
q0 -145 94 -251.5t238 -106.5t238 106.5t94 251.5q0 95 -39 175.5t-116 131t-177 50.5zM-20 82h886v-82h-886v82z" />
    <glyph glyph-name="a.4" unicode="a&#x2e;&#x34;" horiz-adv-x="944" 
d="M332 1229l345 -819q20 -48 48 -60h-157q13 21 0 55l-28 58h-442l-23 -53q-16 -37 -2 -60h-134q25 12 48 60zM321 992l-189 -447h377zM-61 82h786v-82h-786v82z" />
    <glyph glyph-name="e.4" unicode="e&#x2e;&#x34;" horiz-adv-x="1001" 
d="M0 1229h718v-99q-29 17 -59 17h-539v-431h449q29 0 60 18v-117q-31 18 -60 18h-449v-203h539q30 0 59 17v-99h-718q17 29 17 60v759q0 31 -17 60zM0 82h718v-82h-718v82z" />
    <glyph glyph-name="e.2" unicode="e&#x2e;&#x32;" horiz-adv-x="1001" 
d="M414 1229q118 0 204 -62q99 -72 99 -192q0 -83 -52 -141q-44 -50 -123 -81q-52 -21 -153.5 -44.5t-133.5 -35.5q-62 -23 -72.5 -77t46.5 -101q37 -29 86.5 -46.5t98.5 -16.5q108 1 180 48t123 137v-141q-126 -126 -303 -126q-118 0 -218 59t-158 160.5t-58 220.5
q0 182 127 310.5t307 128.5zM414 1147q-136 0 -234.5 -107.5t-98.5 -249.5q0 -63 22 -124q4 8 7 11q39 49 121 79q33 13 136 38t151 52q37 21 64.5 58t27.5 76q0 78 -56 123q-55 44 -140 44zM-20 82h737v-82h-737v82z" />
    <glyph glyph-name="u.2" unicode="u&#x2e;&#x32;" horiz-adv-x="956" 
d="M0 1229h137q-17 -29 -17 -60v-536q0 -97 54.5 -149t155.5 -52q102 0 162.5 52.5t60.5 149.5v535q0 31 -17 60h136q-17 -29 -17 -60v-539q0 -95 -44.5 -160t-114.5 -93t-160 -27q-82 1 -152 28t-118.5 91.5t-48.5 156.5v543q0 31 -17 60zM0 82h672v-82h-672v82z" />
    <glyph glyph-name="o.2" unicode="o&#x2e;&#x32;" horiz-adv-x="1118" 
d="M419 1229q181 0 310 -128.5t129 -310.5t-129 -311t-310 -129t-310 129t-129 311t129 310.5t310 128.5zM419 1147q-103 0 -181 -50.5t-117 -131t-39 -175.5q0 -147 92.5 -252.5t244.5 -105.5t244.5 105.5t92.5 252.5q0 95 -39 175.5t-117 131t-181 50.5zM-20 82h878v-82
h-878v82z" />
    <glyph glyph-name="c.2" unicode="c&#x2e;&#x32;" horiz-adv-x="1032" 
d="M419 1229q182 0 309 -93v-163q-27 68 -107.5 121t-201.5 53q-103 0 -181 -50.5t-117 -131t-39 -175.5q0 -147 92.5 -252.5t244.5 -105.5q105 0 193.5 56t115.5 122v-163q-101 -97 -309 -97q-181 0 -310 129t-129 311t129 310.5t310 128.5zM-20 82h748v-82h-748v82z" />
    <glyph glyph-name="g.2" unicode="g&#x2e;&#x32;" horiz-adv-x="1024" 
d="M419 1229q180 0 304 -80v-153q-24 59 -113.5 105t-190.5 46q-103 0 -181 -50.5t-117 -131t-39 -175.5q0 -147 92.5 -252.5t244.5 -105.5q57 0 112 25t89 61v88q0 50 -1.5 73t-12 47t-31.5 37h148v-290q-128 -123 -304 -123q-181 0 -310 129t-129 311t129 310.5t310 128.5
zM-20 82h743v-82h-743v82z" />
    <glyph glyph-name="s.2" unicode="s&#x2e;&#x32;" horiz-adv-x="909" 
d="M318 1228q137 0 264 -69v-144q-30 54 -108.5 92.5t-155.5 38.5q-112 0 -174 -48t-62 -120q1 -51 40 -93t90.5 -66.5t113.5 -38.5q8 -2 46 -12t53.5 -14t42.5 -13.5t47 -19.5q49 -24 77 -58q33 -41 33 -97q0 -51 -29 -94t-76 -70q-87 -51 -205 -51q-38 0 -81.5 8
t-110.5 38t-122 79v156q57 -84 143 -141.5t171 -57.5q84 0 146 35.5t62 97.5q0 21 -11 33q-14 16 -42 30q-36 17 -170 52q-49 13 -84.5 25t-79 34.5t-71 49t-46.5 68t-19 91.5q0 111 89 195t229 84zM0 82h625v-82h-625v82z" />
    <glyph glyph-name="a.3" unicode="a&#x2e;&#x33;" horiz-adv-x="1148" 
d="M729 1229h137q-17 -29 -17 -60v-759q0 -31 17 -60h-137q17 29 17 60v97q-61 -73 -147.5 -115t-184.5 -42q-118 0 -218 59t-158 160.5t-58 220.5q0 182 127 310.5t307 128.5q98 0 184.5 -42t147.5 -115v97q0 31 -17 60zM414 1147q-100 0 -177 -50.5t-116 -131t-39 -175.5
q0 -145 94 -251.5t238 -106.5t238 106.5t94 251.5q0 95 -39 175.5t-116 131t-177 50.5zM423 174q34 -63 72 -87q-38 -24 -72 -87q-33 62 -73 87q40 24 73 87z" />
    <glyph glyph-name="a.5" unicode="a&#x2e;&#x35;" horiz-adv-x="905" 
d="M313 1229q57 -137 173 -410t173 -409q21 -49 47 -60h-156q12 20 -1 55l-27 58h-443l-22 -53q-16 -38 -3 -60h-134q25 12 48 60zM302 992l-188 -447h377zM313 174q33 -63 73 -87q-40 -25 -73 -87q-34 63 -72 87q38 24 72 87z" />
    <glyph glyph-name="e.5" unicode="e&#x2e;&#x35;" horiz-adv-x="1001" 
d="M0 1229h718v-99q-29 17 -59 17h-539v-431h449q29 0 60 18v-117q-31 18 -60 18h-449v-203h539q30 0 59 17v-99h-718q17 29 17 60v759q0 31 -17 60zM359 174q33 -63 73 -87q-40 -24 -73 -87q-34 63 -72 87q38 24 72 87z" />
    <glyph glyph-name="e.3" unicode="e&#x2e;&#x33;" horiz-adv-x="1021" 
d="M434 1229q119 0 205 -62q99 -72 99 -192q0 -83 -52 -141q-44 -50 -123 -81q-52 -21 -153.5 -44.5t-133.5 -35.5q-62 -23 -73 -77t46 -101q37 -29 86.5 -46.5t98.5 -16.5q108 1 180.5 48.5t123.5 137.5v-142q-126 -126 -304 -126q-118 0 -218 59t-158 160.5t-58 220.5
q0 182 127 310.5t307 128.5zM434 1147q-136 0 -234.5 -107.5t-98.5 -249.5q0 -63 22 -124q3 6 8 11q39 49 120 79q33 13 136 38t151 52q37 21 65 58t28 76q0 78 -56 123q-55 44 -141 44zM369 174q34 -63 72 -87q-38 -24 -72 -87q-34 63 -72 87q38 24 72 87z" />
    <glyph glyph-name="u.3" unicode="u&#x2e;&#x33;" horiz-adv-x="956" 
d="M0 1229h137q-17 -29 -17 -60v-536q0 -97 54.5 -149t155.5 -52q102 0 162.5 52.5t60.5 149.5v535q0 31 -17 60h136q-17 -29 -17 -60v-539q0 -95 -44.5 -160t-114.5 -93t-160 -27q-82 1 -152 28t-118.5 91.5t-48.5 156.5v543q0 31 -17 60zM336 174q33 -63 73 -87
q-40 -24 -73 -87q-34 63 -72 87q38 24 72 87z" />
    <glyph glyph-name="o.3" unicode="o&#x2e;&#x33;" horiz-adv-x="1122" 
d="M421 1229q181 0 310 -128.5t129 -310.5t-129 -311t-310 -129t-310 129t-129 311t129 310.5t310 128.5zM421 1147q-103 0 -181 -50.5t-117 -131t-39 -175.5q0 -147 92.5 -252.5t244.5 -105.5t244.5 105.5t92.5 252.5q0 95 -39 175.5t-117 131t-181 50.5zM421 174
q34 -63 72 -87q-38 -24 -72 -87q-33 62 -73 87q40 24 73 87z" />
    <glyph glyph-name="c.3" unicode="c&#x2e;&#x33;" horiz-adv-x="1028" 
d="M419 1229q182 0 309 -93v-163q-27 68 -107.5 121t-201.5 53q-103 0 -181 -50.5t-117 -131t-39 -175.5q0 -147 92.5 -252.5t244.5 -105.5q105 0 193.5 56t115.5 122v-163q-101 -97 -309 -97q-181 0 -310 129t-129 311t129 310.5t310 128.5zM354 174q34 -63 72 -87
q-38 -24 -72 -87q-33 62 -73 87q40 24 73 87z" />
    <glyph glyph-name="g.3" unicode="g&#x2e;&#x33;" horiz-adv-x="1024" 
d="M419 1229q180 0 304 -80v-153q-24 59 -113.5 105t-190.5 46q-103 0 -181 -50.5t-117 -131t-39 -175.5q0 -147 92.5 -252.5t244.5 -105.5q57 0 112 25t89 61v88q0 50 -1.5 73t-12 47t-31.5 37h148v-290q-128 -123 -304 -123q-181 0 -310 129t-129 311t129 310.5t310 128.5
zM351 174q33 -63 73 -87q-40 -24 -73 -87q-34 63 -72 87q38 24 72 87z" />
    <glyph glyph-name="s.3" unicode="s&#x2e;&#x33;" horiz-adv-x="909" 
d="M318 1228q137 0 264 -69v-144q-30 54 -108.5 92.5t-155.5 38.5q-112 0 -174 -48t-62 -120q1 -51 40 -93t90.5 -66.5t113.5 -38.5q8 -2 46 -12t53.5 -14t42.5 -13.5t47 -19.5q49 -24 77 -58q33 -41 33 -97q0 -51 -29 -94t-76 -70q-87 -51 -205 -51q-38 0 -81.5 8
t-110.5 38t-122 79v156q57 -84 143 -141.5t171 -57.5q84 0 146 35.5t62 97.5q0 21 -11 33q-14 16 -42 30q-36 17 -170 52q-49 13 -84.5 25t-79 34.5t-71 49t-46.5 68t-19 91.5q0 111 89 195t229 84zM313 174q34 -63 72 -87q-38 -24 -72 -87q-33 62 -73 87q40 24 73 87z" />
    <glyph glyph-name="i.2" unicode="i&#x2e;&#x32;" horiz-adv-x="428" 
d="M4 1229h137q-17 -29 -17 -60v-759q0 -31 17 -60h-137q17 29 17 60v759q0 31 -17 60zM72 174q33 -63 73 -87q-40 -25 -73 -87q-34 63 -72 87q38 24 72 87z" />
    <glyph glyph-name="CO" unicode="CO" horiz-adv-x="1304" 
d="M569 1232q128 0 241.5 -34.5t193.5 -98.5v-193q-11 28 -32 57.5t-59 64t-85 61t-115 44t-144 17.5q-137 0 -254.5 -73.5t-185.5 -196.5t-68 -263t68 -263.5t185.5 -198t254.5 -74.5q95 0 173 25.5t128.5 68t81.5 82.5t52 84v-194q-58 -59 -171.5 -103.5t-263.5 -44.5
q-165 0 -305.5 83t-222.5 225.5t-82 309.5t82 308.5t222.5 224t305.5 82.5zM574 965q144 0 247 -102.5t103 -246.5t-103 -247t-247 -103t-246.5 103t-102.5 247t102.5 246.5t246.5 102.5zM574 881q-114 0 -184 -80q-65 -74 -65 -185t66 -186q70 -80 183 -80q114 0 184 80
q66 75 66 186q0 110 -66 185q-70 80 -184 80z" />
    <glyph glyph-name="KE.2" unicode="KE&#x2e;&#x32;" horiz-adv-x="2134" 
d="M0 1229h137q-17 -29 -17 -60v-808l605 808q11 14 14.5 33.5t-1.5 26.5h164q-37 -11 -74 -60l-456 -607q280 -405 751 -462q310 -37 613 85q93 37 115 76v-125q-164 -80 -355 -115.5t-384 -12.5q-229 27 -435.5 144t-362.5 332l-194 -259v-166q0 -31 17 -60h-137
q17 29 17 60v1110q0 31 -17 60zM1133 1229h718v-99q-29 17 -59 17h-539v-430h449q31 0 60 17v-117q-31 18 -60 18h-449v-203h539q30 0 59 17v-99h-718q17 29 17 60v759q0 31 -17 60z" />
    <glyph glyph-name="KA.2" unicode="KA&#x2e;&#x32;" horiz-adv-x="1798" 
d="M1120 1229l345 -819q20 -47 48 -59h-157q13 21 0 55l-28 57h-442l-23 -52q-16 -37 -2 -60h-134q25 12 48 60zM0 1229h137q-17 -29 -17 -60v-808l605 808q11 14 14.5 33.5t-1.5 26.5h164q-37 -11 -74 -60l-462 -615q248 -399 658 -454q184 -25 373 25q72 20 95 39
q14 11 21 25v-124q-252 -90 -501 -56q-202 27 -384 141.5t-321 324.5l-187 -250v-166q0 -31 17 -60h-137q17 29 17 60v1110q0 31 -17 60zM1109 992l-189 -447h377z" />
    <glyph glyph-name="RE.2" unicode="RE&#x2e;&#x32;" horiz-adv-x="2060" 
d="M1061 1229h718v-99q-29 17 -60 17h-539v-430h450q30 0 59 17v-116q-29 17 -59 17h-450v-203h539q31 0 60 17v-99h-718q17 29 17 60v759q0 31 -17 60zM0 1229h428q172 0 293.5 -129.5t121.5 -314.5q-2 -158 -86 -274t-228 -149q260 -227 611 -263q262 -27 527 58
q91 28 112 64v-123q-319 -126 -648 -91q-420 43 -724 343h-287v-291q0 -31 17 -60h-137q17 29 17 60v1110q0 31 -17 60zM120 1147v-715h308q124 0 216 97t95 256q0 157 -84.5 259.5t-226.5 102.5h-308z" />
    <glyph glyph-name="RA.2" unicode="RA&#x2e;&#x32;" horiz-adv-x="2004" 
d="M0 1229h428q172 0 293.5 -129.5t121.5 -314.5q-2 -158 -86.5 -274t-229.5 -149q262 -227 611 -263q246 -26 498 49q26 8 53 24.5t33 32.5v-127q-294 -101 -593 -71q-420 43 -724 343h-285v-291q0 -31 17 -60h-137q17 29 17 60v1110q0 31 -17 60zM1329 1229l345 -819
q20 -48 48 -60h-156q12 20 -1 55l-28 58h-442l-22 -53q-16 -38 -3 -60h-134q25 12 48 60zM120 1147v-715h308q124 0 216 97t95 256q0 157 -84.5 259.5t-226.5 102.5h-308zM1318 992l-189 -447h377z" />
    <glyph glyph-name="LE.2" unicode="LE&#x2e;&#x32;" horiz-adv-x="1368" 
d="M369 1229h718v-99q-29 17 -60 17h-539v-430h450q31 0 60 17v-116q-29 17 -60 17h-450v-203h539q31 0 60 17v-99h-718q17 29 17 60v759q0 31 -17 60zM137 1229q-12 -22 -17 -60v-1027q63 24 125.5 32t121.5 0t103 -19t103 -29q17 -5 25 -8q231 -69 389 -12q79 31 100 71
v-115q-220 -110 -513 -23q-14 4 -49 15t-50.5 16t-49 13.5t-52.5 10.5t-51.5 5t-56 -0.5t-56 -9.5t-61.5 -18t-63 -29.5t-68 -41.5v1169q0 31 -17 60h137z" />
    <glyph glyph-name="LA.2" unicode="LA&#x2e;&#x32;" horiz-adv-x="1396" 
d="M720 1229l345 -819q20 -47 48 -59h-157q13 21 0 55l-28 57h-442l-23 -52q-16 -37 -2 -60h-134q25 12 48 60zM0 1229h137q-12 -22 -17 -60v-1027q55 21 114.5 28.5t104 6.5t105.5 -13t91 -20t88 -26q231 -69 389 -12q79 31 100 71v-115q-220 -110 -513 -23q-52 16 -74 22
t-73 18t-81.5 13.5t-80.5 1.5t-89.5 -11t-88 -31.5t-95.5 -51.5v1169q0 31 -17 60zM709 992l-189 -447h377z" />
    <glyph glyph-name="LE.3" unicode="LE&#x2e;&#x33;" horiz-adv-x="1398" 
d="M137 1229q-17 -29 -17 -60v-1088h938q31 0 60 17v-99h-1118q17 29 17 60v1110q0 31 -17 60h137zM400 1229h718v-99q-29 17 -60 17h-539v-430h450q30 0 59 17v-116q-29 17 -59 17h-450v-203h539q31 0 60 17v-99h-718q17 29 17 60v759q0 31 -17 60z" />
    <glyph glyph-name="LA.3" unicode="LA&#x2e;&#x33;" horiz-adv-x="1366" 
d="M689 1229l345 -819q20 -47 48 -59h-156q12 20 -1 55l-27 57h-443l-22 -52q-16 -38 -3 -60h-134q25 12 48 60zM137 1229q-17 -29 -17 -60v-1088l903 1q30 0 59 17v-99l-1082 -1q17 29 17 60v1110q0 31 -17 60h137zM678 992l-188 -447h376z" />
    <glyph glyph-name="LE.4" unicode="LE&#x2e;&#x34;" horiz-adv-x="1435" 
d="M137 1229q-17 -29 -17 -60v-1088l979 1q31 0 60 17v-99l-1159 -1q17 29 17 60v1110q0 31 -17 60h137zM855 1229q119 0 205 -62q99 -72 99 -192q0 -83 -52 -141q-44 -50 -123 -81q-52 -21 -153.5 -44.5t-133.5 -35.5q-62 -23 -73 -77t46 -101q84 -66 185 -65
q108 1 180 49.5t124 138.5v-142q-126 -126 -304 -126q-118 0 -218 59t-158 160.5t-58 220.5q0 182 127 310.5t307 128.5zM855 1147q-136 0 -234.5 -107.5t-98.5 -249.5q0 -63 22 -124q3 6 8 11q39 49 120 79q33 13 136 38t151 52q37 21 65 58t28 76q0 78 -56 123
q-55 44 -141 44z" />
    <glyph glyph-name="LA.4" unicode="LA&#x2e;&#x34;" horiz-adv-x="1574" 
d="M137 1229q-17 -29 -17 -60v-1088l1097 1q31 0 60 17v-99l-1277 -1q17 29 17 60v1110q0 31 -17 60h137zM1157 1229h137q-17 -29 -17 -60v-759q0 -31 17 -60h-137q17 29 17 60v97q-61 -73 -147.5 -115t-184.5 -42q-180 0 -307.5 129t-127.5 311q0 119 58.5 220t158.5 160
t218 59q98 0 184.5 -42t147.5 -115v97q0 31 -17 60zM842 1147q-100 0 -177 -50.5t-116 -131t-39 -175.5q0 -145 94 -251.5t238 -106.5t238 106.5t94 251.5q0 95 -39 175.5t-116 131t-177 50.5z" />
    <glyph glyph-name="LU.2" unicode="LU&#x2e;&#x32;" horiz-adv-x="1378" 
d="M137 1229q-17 -29 -17 -60v-1088l900 1q30 0 59 17v-99l-1079 -1q17 29 17 60v1110q0 31 -17 60h137zM424 1229h137q-17 -29 -17 -60v-536q0 -97 54.5 -149t155.5 -52q102 0 162.5 52.5t60.5 149.5v535q0 31 -17 60h136q-17 -29 -17 -60v-539q0 -95 -44.5 -160
t-114.5 -93t-160 -27q-82 1 -152 28t-118.5 91.5t-48.5 156.5v543q0 31 -17 60z" />
    <glyph glyph-name="LO.2" unicode="LO&#x2e;&#x32;" horiz-adv-x="1585" 
d="M137 1229q-17 -29 -17 -60v-1088l1108 1q31 0 60 17v-99l-1288 -1q17 29 17 60v1110q0 31 -17 60h137zM848 1229q182 0 311 -129t129 -310q0 -119 -59 -220.5t-160.5 -160.5t-220.5 -59q-181 0 -310 129t-129 311q0 119 59 220t160 160t220 59zM848 1147
q-153 0 -244.5 -105t-91.5 -252t92 -252.5t244 -105.5t244.5 105.5t92.5 252.5q0 95 -39 175.5t-117 131t-181 50.5z" />
    <glyph glyph-name="LC.2" unicode="LC&#x2e;&#x32;" horiz-adv-x="1454" 
d="M137 1229q-17 -29 -17 -60v-1088l976 1q30 0 59 17v-99l-1155 -1q17 29 17 60v1110q0 31 -17 60h137zM846 1229q182 0 309 -93v-163q-27 68 -107.5 121t-201.5 53q-103 0 -181 -50.5t-117 -131t-39 -175.5q0 -147 92.5 -252.5t244.5 -105.5q105 0 193.5 56t115.5 122
v-163q-101 -97 -309 -97q-181 0 -310 129t-129 311q0 119 59 220t160 160t220 59z" />
    <glyph glyph-name="LG.2" unicode="LG&#x2e;&#x32;" horiz-adv-x="1466" 
d="M137 1229q-17 -29 -17 -60v-1088l989 1q31 0 60 17v-99l-1169 -1q17 29 17 60v1110q0 31 -17 60h137zM865 1229q180 0 304 -80v-152q-24 59 -113.5 104.5t-190.5 45.5q-103 0 -181 -50.5t-117 -131t-39 -175.5q0 -147 92.5 -252.5t244.5 -105.5q57 0 112 25t89 61v88
q0 50 -1.5 73t-12 47t-31.5 37h148v-290q-128 -123 -304 -123q-181 0 -310.5 129t-129.5 311q0 181 129 310t311 129z" />
    <glyph glyph-name="LS.2" unicode="LS&#x2e;&#x32;" horiz-adv-x="1341" 
d="M137 1229q-17 -29 -17 -60v-1088l865 1q31 0 60 17v-99l-1045 -1q17 29 17 60v1110q0 31 -17 60h137zM738 1228q136 0 263 -69v-144q-30 54 -108 92.5t-155 38.5q-112 0 -174 -48t-62 -120q1 -51 39.5 -93t90 -66.5t113.5 -38.5q10 -3 46.5 -12t53 -14t43.5 -14t47 -19
q48 -23 76 -58q34 -42 34 -97q0 -51 -29 -94t-76 -70q-87 -51 -205 -51q-38 0 -81.5 8t-110.5 38t-122 79v156q57 -84 143 -141.5t171 -57.5q84 0 146 35.5t62 97.5q0 21 -11 33q-14 16 -42 30q-35 17 -171 52q-49 13 -84.5 25t-79 34.5t-70.5 49t-46 68t-19 91.5
q0 111 89 195t229 84z" />
    <glyph glyph-name="QE.2" unicode="QE&#x2e;&#x32;" horiz-adv-x="2418" 
d="M569 1232q165 0 305.5 -82.5t222 -224t81.5 -308.5q0 -187 -102 -341q52 -18 79 -27q262 -92 381 -119q281 -66 499 -1q81 24 101 59v-121q-99 -40 -210.5 -52.5t-190.5 -10t-207 33.5t-180.5 48t-189.5 65q-22 7 -33 11q-18 6 -110 37q-85 -92 -200.5 -144t-245.5 -52
q-165 0 -305.5 82t-222.5 223.5t-82 308.5t82 308.5t222.5 224t305.5 82.5zM1418 1229h718v-99q-29 17 -59 17h-539v-431h449q31 0 60 17v-116q-29 17 -60 17h-449v-202h539q30 0 59 17v-99h-718q17 29 17 60v759q0 31 -17 60zM569 1150q-137 0 -254.5 -73.5t-185.5 -196.5
t-68 -263q0 -108 41.5 -208.5t115.5 -177.5q169 137 387 142h15q31 0 46 -1q129 -7 314 -65q96 144 96 310q0 105 -40 203t-108 170.5t-162 116t-197 43.5zM620 281q-187 2 -331 -111q119 -86 280 -86q207 0 348 146q-149 43 -257 50q-13 1 -40 1z" />
    <glyph glyph-name="QA.2" unicode="QA&#x2e;&#x32;" horiz-adv-x="2414" 
d="M569 1232q165 0 305.5 -82.5t222 -224t81.5 -308.5q0 -186 -103 -341q14 -5 41.5 -15.5t41.5 -15.5q83 -31 120.5 -44t115.5 -38.5t124 -35.5t118.5 -22t128 -11.5t123.5 8t133 26.5l12 4q12 3 14.5 3.5t14 4t15 5.5t13 6t14 7t10.5 8t10 10t7 11v-119
q-77 -30 -159 -45.5t-149.5 -20t-151.5 6.5t-140 21.5t-143 37.5t-131 43t-131 48q-59 22 -111 40q-85 -92 -200.5 -144t-245.5 -52q-165 0 -305.5 82t-222.5 223.5t-82 308.5t82 308.5t222.5 224t305.5 82.5zM1738 1229l345 -819q20 -47 48 -59h-157q12 20 -1 55l-27 57
h-442l-23 -53q-15 -37 -2 -59h-135q26 12 48 59zM569 1150q-137 0 -254.5 -73.5t-185.5 -196.5t-68 -263q0 -106 40.5 -205.5t112.5 -175.5q182 140 401 142q21 0 61 -2q127 -9 305 -67q95 141 95 308q0 105 -40 203t-108 170.5t-162 116t-197 43.5zM1726 992l-188 -447h377
zM616 286q-180 -2 -332 -113q118 -89 285 -89q208 0 350 148q-139 44 -249 52q-36 2 -54 2z" />
    <glyph glyph-name="TE.2" unicode="TE&#x2e;&#x32;" horiz-adv-x="1705" 
d="M-41 1229h1465v-99q-29 17 -60 17h-942v-1088q0 -31 17 -60h-136q17 29 17 60v1028q0 24 4 39t8 18l5 3h-318q-31 0 -60 -17v17v82zM706 878h718v-99q-29 17 -60 17h-539v-430h450q30 0 59 17v-116q-29 17 -59 17h-450v-202h539q31 0 60 17v-99h-718q17 29 17 60v759
q0 30 -17 59z" />
    <glyph glyph-name="ET.2" unicode="ET&#x2e;&#x32;" horiz-adv-x="1718" 
d="M1480 1229v-99q-29 17 -59 17h-301v-1088q0 -31 17 -60h-137q17 29 17 60v1028q0 24 4.5 39t8.5 18l4 3l-957 -1q-31 0 -60 -17v99zM0 878h718v-99q-29 17 -59 17h-539v-430h449q31 0 60 17v-116q-29 17 -60 17h-449v-202h539q30 0 59 17v-99h-718q17 29 17 60v759
q0 30 -17 59z" />
    <glyph glyph-name="TA.2" unicode="TA&#x2e;&#x32;" horiz-adv-x="1705" 
d="M-41 1229h1465v-99q-29 17 -60 17h-942v-1088q0 -31 17 -60h-136q17 29 17 60v1028q0 24 4 39t8 18l5 3h-318q-31 0 -60 -17v17v82zM1032 879l345 -819q20 -48 48 -60h-156q12 20 -1 55l-27 58h-443l-22 -53q-16 -38 -3 -60h-134q25 12 48 60zM1021 642l-188 -447h376z
" />
    <glyph glyph-name="AT.2" unicode="AT&#x2e;&#x32;" horiz-adv-x="1701" 
d="M1463 1229v-99q-29 17 -59 17h-302v-1088q0 -29 18 -60h-137q17 29 17 60v1028q0 24 4 39t8 18l5 3l-957 -1q-31 0 -60 -17v99zM393 879q57 -136 173 -409t173 -410q20 -48 48 -60h-157q12 20 -1 55l-27 58h-443l-22 -53q-16 -38 -3 -60h-134q25 12 48 60zM382 642
l-188 -447h377z" />
    <glyph glyph-name=".notdef" horiz-adv-x="1024" 
d="M102 0v1092h820v-1092h-820zM205 102h614v887h-614v-887z" />
    <glyph glyph-name=".null" horiz-adv-x="0" 
 />
    <glyph glyph-name="nonmarkingreturn" horiz-adv-x="682" 
 />
    <glyph glyph-name="space" unicode=" " horiz-adv-x="614" 
 />
    <glyph glyph-name="exclam" unicode="!" horiz-adv-x="430" 
d="M5 1229h136q-17 -29 -17 -60l-12 -959h-78l-12 959q0 31 -17 60zM73 146q30 0 51.5 -21.5t21.5 -51.5t-21.5 -51.5t-51.5 -21.5t-51.5 21.5t-21.5 51.5t21.5 51.5t51.5 21.5z" />
    <glyph glyph-name="quotedbl" unicode="&#x22;" horiz-adv-x="376" 
d="M-37 1229q27 0 46 -21.5t19 -51.5q0 -29 -28 -69.5t-28 -68.5h-18q0 28 -28 68t-28 70t19 51.5t46 21.5zM133 1229q27 0 46 -21.5t19 -51.5q0 -29 -28 -69.5t-28 -68.5h-18q0 28 -28 68t-28 70t19 51.5t46 21.5z" />
    <glyph glyph-name="numbersign" unicode="#" horiz-adv-x="1513" 
d="M563 1229h145q-18 -11 -40 -60l-125 -327h343l125 327q5 16 6.5 34t-2.5 26h145q-22 -14 -40 -60l-124 -327h175q30 0 59 17v-116q-29 17 -59 17h-207l-124 -325h195q31 0 60 17v-116q-29 17 -60 17h-226l-112 -293q-5 -16 -6.5 -34t2.5 -26h-145q18 11 40 60l112 293
h-343l-112 -293q-15 -50 -5 -60h-145q19 12 40 60l112 293h-187q-31 0 -60 -17v116q29 -17 60 -17h218l124 325h-207q-30 0 -59 -17v116q29 -17 59 -17h238l125 327q15 50 5 60zM512 760l-124 -325h343l124 325h-343z" />
    <glyph glyph-name="dollar" unicode="$" horiz-adv-x="1073" 
d="M331 1229h116q-17 -29 -17 -60v-2q2 0 6 -0.5t7 -0.5q169 -12 272 -88l2 -2v-153l-10 17q-30 53 -102.5 98t-174.5 50v-502q169 -43 225 -70q62 -30 94 -67q41 -48 41 -110q0 -126 -111 -200q-96 -64 -249 -70v-9q0 -31 17 -60h-116q17 29 17 60v11q-92 9 -185 47.5
t-161 106.5l-2 1v163l9 -14q54 -82 139 -145.5t200 -77.5v351q-140 37 -213 86q-129 85 -129 235q0 125 94.5 224t247.5 116v5q0 31 -17 60zM348 1084q-117 -16 -188 -85t-71 -145q0 -118 111 -186q58 -35 148 -60v476zM430 481v-331q96 4 162 36t94 77q28 46 9 90
q-20 47 -84 71q-72 27 -181 57z" />
    <glyph glyph-name="percent" unicode="%" horiz-adv-x="1204" 
d="M238 1229q91 0 156 -65t65 -157t-65 -157t-156 -65q-92 0 -157 65.5t-65 156.5t65 156.5t157 65.5zM788 1229h133q-15 -10 -36 -42l-745 -1158q-11 -18 -10 -29h-130q13 8 29 33l747 1162q14 24 12 34zM238 1171q-69 0 -103 -47t-36 -117q1 -70 35 -115.5t99 -45.5
t103 47t40 114q0 69 -34.5 116.5t-103.5 47.5zM681 444q91 0 156.5 -65t65.5 -157t-65.5 -157t-156.5 -65t-156.5 65t-65.5 157t65.5 157t156.5 65zM681 386q-69 0 -102.5 -47t-35.5 -117q1 -70 35 -115.5t99 -45.5t103 47t40 114q0 69 -35 116.5t-104 47.5z" />
    <glyph glyph-name="ampersand" unicode="&#x26;" horiz-adv-x="1302" 
d="M398 1229h12q81 -3 146 -46q96 -63 117 -181q7 -42 19 -54h-117q23 66 -31 132.5t-141 66.5q-65 0 -112 -34.5t-64 -85t0 -114.5t71 -118l495 -495q73 135 79 319q1 11 -4 25t-13 18h115q-16 -14 -16 -44q-7 -237 -93 -387l198 -198q32 -28 48 -33h-184q9 15 -14 38
l-108 109q-1 -2 -3 -3.5t-4.5 -4l-3.5 -3.5q-80 -83 -190 -119t-234 -20q-143 18 -237 101t-118 191q-28 129 19.5 252t167.5 213q-53 67 -70.5 140.5t1.5 134.5q18 68 69 117.5t120 70.5q39 12 80 12zM255 692q-61 -40 -104 -119.5t-47 -165.5q-4 -72 19.5 -133t83.5 -110
t152 -66q235 -45 375 116z" />
    <glyph glyph-name="quotesingle" unicode="'" horiz-adv-x="206" 
d="M-37 1229q27 0 46 -21.5t19 -51.5q0 -29 -28 -69.5t-28 -68.5h-18q0 28 -28 68t-28 70t19 51.5t46 21.5z" />
    <glyph glyph-name="parenleft" unicode="(" horiz-adv-x="530" 
d="M164 1331h82q-71 -100 -118 -320.5t-45 -396.5q2 -179 45.5 -386.5t118.5 -329.5h-80q-77 131 -121.5 337t-45.5 382q-1 177 42 381t122 333z" />
    <glyph glyph-name="parenright" unicode=")" horiz-adv-x="530" 
d="M83 1331q79 -129 122 -333t42 -381q-1 -176 -45.5 -382t-121.5 -337h-80q75 122 118.5 329.5t45.5 386.5q2 176 -45 396.5t-118 320.5h82z" />
    <glyph glyph-name="asterisk" unicode="*" horiz-adv-x="374" 
d="M45 1229q14 0 24 -15t10 -36q0 -20 -11.5 -48.5t-11.5 -47.5v-1l2 1q17 9 35.5 32.5t36.5 34.5q18 10 35.5 9t24.5 -13t-1 -27.5t-26 -26.5q-18 -10 -48 -14.5t-46 -13.5l-2 -1l2 -1q16 -9 46 -13.5t48 -15.5q18 -10 26 -26t1 -28t-24.5 -13t-35.5 10q-18 10 -37 34
t-35 33l-2 1v-2q0 -19 11.5 -47.5t11.5 -48.5q0 -21 -10 -36t-24 -15t-23.5 15t-9.5 36t11 49t11 47v2l-1 -1q-16 -9 -35 -33t-37 -34q-18 -11 -35.5 -10t-24.5 13t1 28t26 26q18 11 48 15.5t46 13.5l2 1l-2 1q-16 9 -46 13.5t-48 14.5q-18 11 -26 26.5t-1 27.5t24.5 13
t35.5 -9q18 -11 36.5 -34.5t35.5 -32.5l1 -1v1q0 19 -11 47t-11 49t9.5 36t23.5 15z" />
    <glyph glyph-name="plus" unicode="+" horiz-adv-x="892" 
d="M264 902h82v-263h263v-82h-263v-264h-82v264h-264v82h264v263z" />
    <glyph glyph-name="comma" unicode="," horiz-adv-x="227" 
d="M-29 146q30 0 51.5 -21.5t21.5 -51.5q0 -51 -33 -90q-41 -48 -110 -48v21q61 0 94 40l9 12q-18 -8 -33 -8q-30 0 -51.5 21.5t-21.5 51.5t21.5 51.5t51.5 21.5z" />
    <glyph glyph-name="hyphen" unicode="-" horiz-adv-x="892" 
d="M0 639h609v-82h-609v82z" />
    <glyph glyph-name="period" unicode="." horiz-adv-x="225" 
d="M-102 73q0 30 21.5 51.5t51.5 21.5t51.5 -21.5t21.5 -51.5t-21.5 -51.5t-51.5 -21.5t-51.5 21.5t-21.5 51.5z" />
    <glyph glyph-name="slash" unicode="/" horiz-adv-x="823" 
d="M452 1229h87l-452 -1229h-87z" />
    <glyph glyph-name="zero" unicode="0" horiz-adv-x="1183" 
d="M452 1229q128 0 236.5 -82.5t171.5 -224t63 -308.5t-63 -308.5t-171.5 -224t-236.5 -82.5t-236 82.5t-171 224t-63 308.5t63 308.5t171 224t236 82.5zM452 1147q-105 0 -187.5 -74.5t-125.5 -195t-43 -263.5t43 -263.5t125.5 -195t187.5 -74.5t187.5 74.5t125.5 195
t43 263.5t-43 263.5t-125.5 195t-187.5 74.5z" />
    <glyph glyph-name="one" unicode="1" horiz-adv-x="468" 
d="M65 1229h103v-1169q0 -31 17 -60h-137q17 29 17 60v998h-65q19 26 28 39.5t23 52.5t14 79z" />
    <glyph glyph-name="two" unicode="2" horiz-adv-x="972" 
d="M369 1229q95 0 174 -44.5t123.5 -115.5t44.5 -169.5t-55 -197.5q-48 -86 -139 -191l-372 -429h508q30 0 59 17v-99h-773l501 578q86 100 124 169q41 75 43.5 146t-25.5 121.5t-77.5 84.5t-107 42t-120 -13.5t-110.5 -73.5q-27 -29 -36.5 -58t-4.5 -43l-94 35
q28 104 125 172.5t212 68.5z" />
    <glyph glyph-name="three" unicode="3" horiz-adv-x="972" 
d="M23 1229h705l-319 -368q140 -40 229.5 -157t89.5 -265q0 -181 -129 -310t-310 -129q-178 0 -309 97v162q27 -66 115.5 -121.5t193.5 -55.5q152 0 244 105t92 252t-91.5 252t-244.5 105q-41 0 -77 -6l309 357h-439q-30 0 -59 -17v99z" />
    <glyph glyph-name="four" unicode="4" horiz-adv-x="913" 
d="M616 1229v-915h79q31 0 60 17v-116q-29 17 -60 17h-79v-172q0 -31 17 -60h-136q17 29 17 60v172h-596zM514 940l-438 -626h438v626z" />
    <glyph glyph-name="five" unicode="5" horiz-adv-x="991" 
d="M0 1229h631v-99q-29 17 -59 17h-490v-312q93 43 227 43q181 0 310 -129t129 -310t-129 -310t-310 -129q-89 0 -178.5 28t-130.5 69v162q27 -66 115.5 -121.5t193.5 -55.5q152 0 244.5 105t92.5 252q0 95 -39 175.5t-117 131t-181 50.5q-121 0 -201.5 -52.5t-107.5 -120.5
v606z" />
    <glyph glyph-name="six" unicode="6" horiz-adv-x="1079" 
d="M728 1230v-102q-42 13 -99 6q-225 -26 -366 -158q-95 -88 -144 -204q124 106 285 106q182 0 311 -129t129 -310t-129 -310t-311 -129q-176 0 -303 122.5t-135 297.5q-14 143 15.5 265t81.5 202t130 153q204 190 535 190zM404 796q-153 0 -244.5 -105t-91.5 -252t92 -252
t244 -105t244.5 105t92.5 252q0 95 -39 175.5t-117 131t-181 50.5z" />
    <glyph glyph-name="seven" unicode="7" horiz-adv-x="997" 
d="M-19 1229h776l-679 -1229h-117l634 1147h-555q-30 0 -59 -17v99z" />
    <glyph glyph-name="eight" unicode="8" horiz-adv-x="1120" 
d="M421 1229q151 0 258 -84q108 -85 108 -205q0 -119 -108 -204q-37 -29 -74 -45q77 -26 140 -75q136 -107 136 -256q0 -148 -136 -255q-134 -105 -324 -105q-191 0 -325 105q-135 106 -135 255q0 150 135 256q62 48 141 75q-37 16 -74 45q-108 85 -108 204q0 120 108 205
q107 84 258 84zM421 1147q-122 0 -192.5 -59.5t-70.5 -147.5q0 -89 71.5 -152.5t191.5 -63.5t191.5 63.5t71.5 152.5q0 88 -70.5 147.5t-192.5 59.5zM421 645q-157 0 -250.5 -84t-93.5 -201q0 -116 93.5 -197t250.5 -81t250.5 81t93.5 197q0 117 -93.5 201t-250.5 84z" />
    <glyph glyph-name="nine" unicode="9" horiz-adv-x="1099" 
d="M398 1230q176 0 303.5 -122t135.5 -297q20 -209 -43 -358.5t-185 -262.5q-204 -190 -535 -190v102q40 -12 100 -5q225 26 365 157q97 90 145 204q-124 -106 -286 -106q-182 0 -310.5 129t-128.5 310t128.5 310t310.5 129zM398 1148q-152 0 -244.5 -105t-92.5 -252
q0 -95 39 -175.5t117 -131t181 -50.5t181 50.5t117 131t39 175.5q0 147 -92.5 252t-244.5 105z" />
    <glyph glyph-name="colon" unicode=":" horiz-adv-x="364" 
d="M32 616q30 0 51.5 -21.5t21.5 -51.5t-21.5 -51.5t-51.5 -21.5t-51.5 21.5t-21.5 51.5t21.5 51.5t51.5 21.5zM32 146q30 0 51.5 -21.5t21.5 -51.5t-21.5 -51.5t-51.5 -21.5t-51.5 21.5t-21.5 51.5t21.5 51.5t51.5 21.5z" />
    <glyph glyph-name="semicolon" unicode=";" horiz-adv-x="225" 
d="M-29 616q30 0 51.5 -21.5t21.5 -51.5t-21.5 -51.5t-51.5 -21.5t-51.5 21.5t-21.5 51.5t21.5 51.5t51.5 21.5zM-29 146q30 0 51.5 -21.5t21.5 -51.5q0 -51 -33 -90q-41 -48 -110 -48v21q61 0 94 40l9 12q-18 -8 -33 -8q-30 0 -51.5 21.5t-21.5 51.5t21.5 51.5t51.5 21.5z
" />
    <glyph glyph-name="less" unicode="&#x3c;" horiz-adv-x="749" 
d="M467 872v-94l-303 -175l303 -175v-95l-467 270z" />
    <glyph glyph-name="equal" unicode="=" horiz-adv-x="892" 
d="M0 728h609v-82h-609v82zM0 571h609v-82h-609v82z" />
    <glyph glyph-name="greater" unicode="&#x3e;" horiz-adv-x="749" 
d="M0 872l467 -269l-467 -270v95l303 175l-303 175v94z" />
    <glyph glyph-name="question" unicode="?" horiz-adv-x="862" 
d="M255 1229q95 0 174 -44.5t123.5 -115.5t44.5 -169.5t-55 -197.5q-31 -54 -75 -108.5t-79 -94t-67.5 -83t-50.5 -95t-18 -111.5h-78q0 156 76 271q26 39 97 124.5t103 141.5q57 113 40.5 202t-82.5 143.5t-151 54.5q-81 0 -157.5 -55t-87.5 -139l-94 35q28 104 125 172.5
t212 68.5zM217 146q30 0 51.5 -21.5t21.5 -51.5t-21.5 -51.5t-51.5 -21.5t-51.5 21.5t-21.5 51.5t21.5 51.5t51.5 21.5z" />
    <glyph glyph-name="at" unicode="@" 
d="M569 1229q155 0 289 -73.5t218 -200.5t99 -281q8 -90 -7 -168q-18 -92 -65.5 -153.5t-110.5 -84.5q-81 -29 -142 16q-44 32 -57 94q-98 -98 -233 -98q-137 0 -234 98.5t-97 236.5t97 236t234 98q143 0 241 -106v54q0 19 -12 41l-6 11h126l-6 -11q-12 -22 -12 -41v-486
q2 -32 19 -44q18 -12 48 -2q33 11 64 51t45 107q13 67 7 141q-18 200 -163.5 341.5t-341.5 141.5q-137 0 -254.5 -73.5t-185.5 -196.5t-68 -263t68 -263t185.5 -196.5t254.5 -73.5t233 55q51 30 64 56v-115q-137 -78 -297 -78q-165 0 -305.5 82.5t-222.5 224t-82 308.5
t82 308.5t222.5 224t305.5 82.5zM560 874q-109 0 -176 -79q-64 -75 -64 -180t67.5 -182t172.5 -77t173 77t68 182q0 104 -65 180q-67 79 -176 79z" />
    <glyph glyph-name="A" unicode="A" horiz-adv-x="1181" 
d="M461 1229l494 -1171q20 -47 48 -59h-157q11 21 -2 60l-98 232l-6 12q-6 18 -5 28.5t5 14.5l3 4h-563l-123 -291q-16 -38 -3 -60h-134q28 12 48 60zM450 992l-235 -560h471z" />
    <glyph glyph-name="B" unicode="B" horiz-adv-x="1105" 
d="M0 1229h428q176 0 295.5 -110.5t119.5 -291.5q0 -167 -106 -270q-32 -31 -78 -56q46 -15 82 -39q50 -34 76 -85t26 -109q0 -74 -37 -129t-99 -85t-132.5 -43.5t-146.5 -11.5h-428q17 29 17 60v1110q0 31 -17 60zM120 1147v-616h308q31 0 48 2q115 12 188 84t75 210
q0 153 -82.5 236.5t-228.5 83.5h-308zM464 448q-5 0 -17.5 0.5t-18.5 0.5h-308v-368h308q51 0 99.5 8t99 27.5t81.5 59t31 95.5q0 164 -275 177z" />
    <glyph glyph-name="C" unicode="C" horiz-adv-x="1304" 
d="M569 1229q128 0 241.5 -34.5t193.5 -98.5v-194q-11 28 -32 58t-59 64t-85 61t-115 44.5t-144 17.5q-137 0 -254.5 -73.5t-185.5 -196.5t-68 -263t68 -264t185.5 -198.5t254.5 -74.5q77 0 143.5 18t111.5 44.5t83 63.5t59 69t38 66v-194q-58 -59 -171.5 -103.5
t-263.5 -44.5q-165 0 -305.5 83t-222.5 225.5t-82 309.5t82 308.5t222.5 224t305.5 82.5z" />
    <glyph glyph-name="D" unicode="D" horiz-adv-x="1085" 
d="M0 1229h227q279 0 448 -164q168 -163 168 -425q0 -274 -154 -449q-169 -192 -462 -192h-227q17 29 17 60v1110q0 31 -17 60zM120 1147v-1066h107q135 0 238 46q266 119 275 513q1 63 -13 128.5t-43 129t-80.5 116.5t-118.5 82q-116 51 -258 51h-107z" />
    <glyph glyph-name="E" unicode="E" horiz-adv-x="1003" 
d="M0 1229h718v-99q-29 17 -59 17h-539v-715h449q31 0 60 17v-116q-29 17 -60 17h-449v-269h539q30 0 59 17v-99h-718q17 29 17 60v1110q0 31 -17 60z" />
    <glyph glyph-name="F" unicode="F" horiz-adv-x="980" 
d="M0 1229h718v-99q-29 17 -59 17h-539v-715h449q31 0 60 17v-116q-29 17 -60 17h-449v-291q0 -31 17 -60h-137q17 29 17 60v1110q0 31 -17 60z" />
    <glyph glyph-name="G" unicode="G" horiz-adv-x="1306" 
d="M569 1229q127 0 245.5 -36t190.5 -97v-194q-15 30 -35 58t-58 63.5t-83.5 61.5t-113.5 44t-146 18q-137 0 -254.5 -73.5t-185.5 -196.5t-68 -263t68 -264t185.5 -198.5t254.5 -74.5q97 0 192.5 45.5t141.5 112.5v223q0 24 4.5 39t8.5 18l4 3h-255q-28 0 -59 -18v18v82
h399v-426q-83 -84 -197 -131t-239 -47q-165 0 -305.5 83t-222.5 225.5t-82 309.5t82 308.5t222.5 224t305.5 82.5z" />
    <glyph glyph-name="H" unicode="H" horiz-adv-x="1138" 
d="M0 1229h137q-17 -29 -17 -60v-737h616v737q0 31 -17 60h136q-17 -29 -17 -60v-1110q0 -31 17 -60h-136q17 29 17 60v232q0 24 4 38.5t8 17.5l5 3h-633v-291q0 -31 17 -60h-137q17 29 17 60v1110q0 31 -17 60z" />
    <glyph glyph-name="I" unicode="I" horiz-adv-x="419" 
d="M0 1229h137q-17 -29 -17 -60v-1110q0 -31 17 -60h-137q17 29 17 60v1110q0 31 -17 60z" />
    <glyph glyph-name="J" unicode="J" horiz-adv-x="669" 
d="M-39 1229h425q-17 -29 -17 -60v-783q0 -99 -41 -176t-108 -126q-116 -85 -259 -85v109q40 -14 91 -5t88 37q55 42 89 106t38 140v701q0 24 4.5 39t8.5 18l4 3h-263q-31 0 -60 -17v99z" />
    <glyph glyph-name="K" unicode="K" horiz-adv-x="1110" 
d="M0 1229h137q-17 -29 -17 -60v-808l605 808q11 14 14.5 33.5t-1.5 26.5h164q-37 -11 -74 -60l-474 -631l480 -479q54 -54 74 -60h-191q12 20 -28 60l-397 396l-172 -230v-166q0 -31 17 -60h-137q17 29 17 60v1110q0 31 -17 60z" />
    <glyph glyph-name="L" unicode="L" horiz-adv-x="1101" 
d="M0 1229h137q-17 -29 -17 -60v-1088h658q31 0 60 17v-99h-838q17 29 17 60v1110q0 31 -17 60z" />
    <glyph glyph-name="M" unicode="M" horiz-adv-x="1513" 
d="M0 1229h132l490 -957l489 957h119q-17 -29 -17 -60v-1110q0 -31 17 -60h-136q17 29 17 60v990l-501 -979l-511 999v-1010q0 -31 17 -60h-116q17 29 17 60v1110q0 31 -17 60z" />
    <glyph glyph-name="N" unicode="N" horiz-adv-x="1208" 
d="M0 1229h120l685 -1077v1017q0 29 -18 60h137q-17 -29 -17 -60v-1110q0 -31 17 -60h-119l-685 1077v-1017q0 -31 17 -60h-137q17 29 17 60v1110q0 31 -17 60z" />
    <glyph glyph-name="O" unicode="O" horiz-adv-x="1421" 
d="M569 1229q165 0 305.5 -82.5t222 -224t81.5 -308.5t-81.5 -308.5t-222 -224t-305.5 -82.5t-305.5 82.5t-222.5 224t-82 308.5t82 308.5t222.5 224t305.5 82.5zM569 1147q-137 0 -254.5 -73.5t-185.5 -196.5t-68 -263t68 -263t185.5 -196.5t254.5 -73.5q103 0 197 43.5
t162 116t108 170.5t40 203t-40 203t-108 170.5t-162 116t-197 43.5z" />
    <glyph glyph-name="P" unicode="P" horiz-adv-x="1085" 
d="M0 1229h428q172 0 293.5 -129.5t121.5 -314.5q-2 -185 -115 -309t-300 -126h-308v-291q0 -31 17 -60h-137q17 29 17 60v1110q0 31 -17 60zM120 1147v-715h308q124 0 216 97t95 256q0 157 -84.5 259.5t-226.5 102.5h-308z" />
    <glyph glyph-name="Q" unicode="Q" 
d="M569 1229q165 0 305.5 -82.5t222 -224t81.5 -308.5q0 -155 -71 -289t-194.5 -219.5t-273.5 -102.5q9 -7 33.5 -24t35 -24.5t31 -20t34 -18t31 -10t33.5 -4.5q27 0 55.5 8.5t58.5 34.5t42 67v-128q-67 -62 -145 -62q-49 0 -93.5 17t-79 41.5t-68 49t-76 43.5t-89.5 22
q-149 0 -228 -174v146q47 56 107 85q-162 73 -262 225t-100 337q0 167 82 308.5t222.5 224t305.5 82.5zM569 1147q-137 0 -254.5 -73.5t-185.5 -196.5t-68 -263t68 -263.5t185.5 -197.5t254.5 -74q103 0 197 44t162 117t108 171t40 203t-40 203t-108 170.5t-162 116
t-197 43.5z" />
    <glyph glyph-name="R" unicode="R" horiz-adv-x="1099" 
d="M0 1229h428q172 0 293.5 -129.5t121.5 -314.5q-2 -169 -98 -289t-258 -142l296 -295q54 -54 75 -60h-192q12 20 -28 60l-291 291h-227v-291q0 -31 17 -60h-137q17 29 17 60v1110q0 31 -17 60zM120 1147v-715h308q124 0 216 97t95 256q0 157 -84.5 259.5t-226.5 102.5
h-308z" />
    <glyph glyph-name="S" unicode="S" horiz-adv-x="1103" 
d="M372 1224q61 6 101 2q184 -12 303 -99v-147q-36 64 -127 114.5t-219 50.5q-161 0 -261 -83t-100 -182q0 -43 13.5 -80t32.5 -63.5t52 -50.5t60.5 -38.5t71 -29.5t68.5 -22t68 -18q9 -2 40 -10t43 -11t38.5 -10t41.5 -12t36.5 -12t39.5 -14.5t35 -15.5q150 -72 150 -194
q0 -139 -120.5 -219t-311.5 -80q-111 0 -235 43.5t-212 131.5v161q31 -46 69.5 -87t93.5 -80.5t128.5 -63t154.5 -23.5q188 0 286 84q71 60 57.5 130t-104.5 105q-93 35 -255 77q-192 50 -281 108q-143 94 -143 260q0 140 106.5 250.5t279.5 127.5z" />
    <glyph glyph-name="T" unicode="T" horiz-adv-x="1026" 
d="M-41 1229h824v-74v-25q-29 17 -60 17h-301v-1088q0 -31 17 -60h-136q17 29 17 60v1028q0 24 4 39t8 18l5 3h-318q-31 0 -60 -17v17v82z" />
    <glyph glyph-name="U" unicode="U" horiz-adv-x="1097" 
d="M-20 1229h136q-17 -32 -17 -60v-783q0 -137 84 -221t221 -84q141 0 226.5 79.5t85.5 228.5v780q0 31 -17 60h137q-17 -29 -17 -60v-786q0 -173 -113 -278.5t-289 -105.5q-85 0 -159 23.5t-133 69t-93.5 121t-34.5 172.5v784q0 31 -17 60z" />
    <glyph glyph-name="V" unicode="V" horiz-adv-x="1198" 
d="M-82 1229h157q-14 -23 2 -60l393 -933l394 933q16 37 2 60h135q-29 -14 -48 -60l-494 -1170l-493 1170q-20 48 -48 60z" />
    <glyph glyph-name="W" unicode="W" horiz-adv-x="1714" 
d="M-82 1229h157q-14 -23 2 -60l393 -933l177 418q10 20 19 31.5t13 12.5l4 1l-198 470q-20 48 -48 60h156q-13 -22 3 -60l134 -318l134 318q16 37 2 60h135q-29 -14 -48 -60l-179 -423l215 -510l393 933q16 38 3 60h134q-28 -12 -48 -60l-493 -1170l-259 615l-260 -615
l-493 1170q-20 48 -48 60z" />
    <glyph glyph-name="X" unicode="X" horiz-adv-x="1034" 
d="M-82 1229h163q-11 -21 9 -60l293 -516l305 516q22 38 9 60h139q-25 -11 -53 -60l-353 -599l304 -534q19 -27 40 -37h-162q11 21 -8 60l-234 410l-241 -410q-22 -38 -9 -60h-140q26 11 54 60l256 435q12 20 22 31t14 12l5 1l-359 631q-28 49 -54 60z" />
    <glyph glyph-name="Y" unicode="Y" horiz-adv-x="1034" 
d="M-82 1229h163q-13 -22 9 -60l293 -517l305 517q22 38 9 60h139q-21 -10 -53 -60l-362 -613v-497q0 -29 18 -60h-137q17 29 17 60v500l-347 610q-28 49 -54 60z" />
    <glyph glyph-name="Z" unicode="Z" horiz-adv-x="911" 
d="M-12 1229h705l-596 -1148h485q31 0 60 17v-99h-703l596 1148h-487q-31 0 -60 -17v99z" />
    <glyph glyph-name="bracketleft" unicode="[" horiz-adv-x="501" 
d="M0 1331h218v-69h-128v-1295h128v-69h-218v1433z" />
    <glyph glyph-name="backslash" unicode="\" horiz-adv-x="823" 
d="M87 1229l452 -1229h-87l-452 1229h87z" />
    <glyph glyph-name="bracketright" unicode="]" horiz-adv-x="501" 
d="M218 1331v-1433h-218v69h128v1295h-128v69h218z" />
    <glyph glyph-name="asciicircum" unicode="^" horiz-adv-x="350" 
d="M-32 1229h45h42h45l70 -191h-87l-49 134l-49 -134h-87z" />
    <glyph glyph-name="underscore" unicode="_" horiz-adv-x="1173" 
d="M-102 82h1094v-82h-1094v82z" />
    <glyph glyph-name="grave" unicode="`" horiz-adv-x="233" 
d="M-102 1229h87l70 -191h-87z" />
    <glyph glyph-name="a" unicode="a" horiz-adv-x="1157" 
d="M426 1229h7q54 -2 103 -13q145 -34 243 -152.5t98 -298.5v-309v-396q0 -31 17 -60h-137q17 29 17 60v108q-64 -79 -157 -124.5t-199 -45.5q-124 0 -230 61.5t-167.5 167t-61.5 229.5t61.5 229.5t167.5 166.5t230 61q106 0 199 -45.5t157 -124.5v22q-2 75 -23.5 141.5
t-62 121.5t-108 87t-153.5 32q-115 0 -186.5 -53t-87.5 -117v165q112 85 266 87h7zM418 831q-156 -1 -256.5 -112t-100.5 -263q0 -154 98.5 -265t258.5 -111t258 111t98 265q0 99 -44 184.5t-126.5 138t-185.5 52.5z" />
    <glyph glyph-name="b" unicode="b" horiz-adv-x="1103" 
d="M0 1229h428q176 0 295.5 -110.5t119.5 -291.5q0 -167 -106 -270q-32 -31 -78 -56q46 -15 82 -39q50 -34 76 -85t26 -109q0 -74 -37 -129t-99 -85t-132.5 -43.5t-146.5 -11.5h-428q17 29 17 60v1110q0 31 -17 60zM120 1147v-616h308q31 0 48 2q115 12 188 84t75 210
q0 153 -82.5 236.5t-228.5 83.5h-308zM464 448q-5 0 -17.5 0.5t-18.5 0.5h-308v-368h308q51 0 99.5 8t99 27.5t81.5 59t31 95.5q0 164 -275 177z" />
    <glyph glyph-name="c" unicode="c" horiz-adv-x="1304" 
d="M569 1229q128 0 241.5 -34.5t193.5 -98.5v-194q-11 28 -32 58t-59 64t-85 61t-115 44.5t-144 17.5q-137 0 -254.5 -73.5t-185.5 -196.5t-68 -263t68 -264t185.5 -198.5t254.5 -74.5q77 0 143.5 18t111.5 44.5t83 63.5t59 69t38 66v-194q-58 -59 -171.5 -103.5
t-263.5 -44.5q-165 0 -305.5 83t-222.5 225.5t-82 309.5t82 308.5t222.5 224t305.5 82.5z" />
    <glyph glyph-name="d" unicode="d" horiz-adv-x="1083" 
d="M0 1229h227q279 0 448 -164q168 -163 168 -425q0 -274 -154 -449q-169 -192 -462 -192h-227q17 29 17 60v1110q0 31 -17 60zM120 1147v-1066h107q135 0 238 46q266 119 275 513q1 63 -13 128.5t-43 129t-80.5 116.5t-118.5 82q-116 51 -258 51h-107z" />
    <glyph glyph-name="e" unicode="e" horiz-adv-x="1269" 
d="M569 1232q77 0 150 -21.5t134 -63t98 -109.5t37 -153q0 -58 -19 -107t-50.5 -83t-78 -63.5t-93.5 -48t-106.5 -36t-108.5 -29t-107 -25.5t-95 -26q-87 -34 -119 -107q-19 -39 -12 -74.5t28 -62.5t60 -55q123 -87 288 -87q76 0 147.5 25.5t123.5 65.5t88.5 82t53.5 80
v-166q-84 -79 -192.5 -124t-226.5 -45q-165 0 -305.5 82.5t-222.5 225t-82 309.5t82 309t222.5 224.5t305.5 82.5zM569 1150q-137 0 -254.5 -73.5t-185.5 -196.5t-68 -264q0 -119 52 -232q12 31 31 54q50 64 166 108q44 17 195.5 54.5t225.5 77.5q58 33 102 91.5t44 123.5
q0 122 -87 189.5t-221 67.5z" />
    <glyph glyph-name="f" unicode="f" horiz-adv-x="978" 
d="M0 1229h718v-99q-29 17 -59 17h-539v-715h449q31 0 60 17v-116q-29 17 -60 17h-449v-291q0 -31 17 -60h-137q17 29 17 60v1110q0 31 -17 60z" />
    <glyph glyph-name="g" unicode="g" horiz-adv-x="1304" 
d="M569 1232q118 0 232.5 -38.5t203.5 -94.5v-193q-38 84 -111 140.5t-154 80t-171 23.5q-137 0 -254.5 -73.5t-185.5 -196.5t-68 -263t68 -263.5t185.5 -198t254.5 -74.5q97 0 192.5 44.5t141.5 110.5v210q0 50 -1.5 73t-12 47t-31.5 37h73h74v-425q-83 -84 -197 -131.5
t-239 -47.5q-165 0 -305.5 83t-222.5 225.5t-82 309.5t82 308.5t222.5 224t305.5 82.5z" />
    <glyph glyph-name="h" unicode="h" horiz-adv-x="1138" 
d="M0 1229h137q-17 -29 -17 -60v-737h616v737q0 31 -17 60h136q-17 -29 -17 -60v-1110q0 -31 17 -60h-136q17 29 17 60v232q0 24 4 38.5t8 17.5l5 3h-633v-291q0 -31 17 -60h-137q17 29 17 60v1110q0 31 -17 60z" />
    <glyph glyph-name="i" unicode="i" horiz-adv-x="419" 
d="M0 1229h137q-17 -29 -17 -60v-1110q0 -31 17 -60h-137q17 29 17 60v1110q0 31 -17 60z" />
    <glyph glyph-name="j" unicode="j" horiz-adv-x="626" 
d="M209 1229h136q-17 -29 -17 -60v-783q0 -99 -41 -176t-108 -126q-116 -85 -259 -85v111q47 -16 99 -4.5t91 43.5q108 89 116 237v783q0 31 -17 60z" />
    <glyph glyph-name="k" unicode="k" horiz-adv-x="1107" 
d="M0 1229h137q-17 -29 -17 -60v-808l605 808q11 14 14.5 33.5t-1.5 26.5h164q-37 -11 -74 -60l-474 -631l480 -479q54 -54 74 -60h-191q12 20 -28 60l-397 396l-172 -230v-166q0 -31 17 -60h-137q17 29 17 60v1110q0 31 -17 60z" />
    <glyph glyph-name="l" unicode="l" horiz-adv-x="1099" 
d="M0 1229h137q-17 -29 -17 -60v-1088h658q31 0 60 17v-99h-838q17 29 17 60v1110q0 31 -17 60z" />
    <glyph glyph-name="m" unicode="m" horiz-adv-x="1775" 
d="M406 1230q68 0 136.5 -20t117.5 -62q56 -49 87 -111q31 62 83 105q104 88 254 88q155 0 254 -82q137 -113 137 -350v-1v-738q0 -31 17 -60h-137q17 29 17 60v739q-1 46 -9.5 92t-29.5 93.5t-51.5 83t-80 58t-111.5 22.5q-121 -3 -207 -96t-86 -253v-739q0 -31 17 -60
h-136q17 29 17 60v738q-1 46 -9.5 92t-29.5 93.5t-51.5 83.5t-80 58.5t-111.5 22.5q-77 0 -135 -28t-91.5 -77.5t-49.5 -110.5t-17 -133v-739q0 -31 17 -60h-137q17 29 17 60v739v371q0 31 -17 60h137q-17 -29 -17 -60v-59q10 12 32 32q104 88 254 88z" />
    <glyph glyph-name="n" unicode="n" horiz-adv-x="1097" 
d="M406 1230q156 -2 254 -82q137 -113 137 -350v-739q0 -31 17 -60h-136q17 29 17 60v738q-1 46 -9.5 92t-29.5 93.5t-51.5 83.5t-80 58.5t-111.5 22.5q-77 0 -135 -28t-91.5 -77.5t-49.5 -110.5t-17 -133v-739q0 -31 17 -60h-137q17 29 17 60v739v371q0 31 -17 60h137
q-17 -29 -17 -60v-59q10 12 32 32q104 88 254 88z" />
    <glyph glyph-name="o" unicode="o" 
d="M569 1229q165 0 305.5 -82.5t222 -224t81.5 -308.5t-81.5 -308.5t-222 -224t-305.5 -82.5t-305.5 82.5t-222.5 224t-82 308.5t82 308.5t222.5 224t305.5 82.5zM569 1147q-137 0 -254.5 -73.5t-185.5 -196.5t-68 -263t68 -263t185.5 -196.5t254.5 -73.5q103 0 197 43.5
t162 116t108 170.5t40 203t-40 203t-108 170.5t-162 116t-197 43.5z" />
    <glyph glyph-name="p" unicode="p" horiz-adv-x="1083" 
d="M0 1229h428q172 0 293.5 -129.5t121.5 -314.5q-2 -185 -115 -309t-300 -126h-308v-291q0 -31 17 -60h-137q17 29 17 60v1110q0 31 -17 60zM120 1147v-715h308q124 0 216 97t95 256q0 157 -84.5 259.5t-226.5 102.5h-308z" />
    <glyph glyph-name="q" unicode="q" 
d="M569 1229q165 0 305.5 -82.5t222 -224t81.5 -308.5q0 -155 -71 -289t-194.5 -219.5t-273.5 -102.5q9 -7 33.5 -24t35 -24.5t31 -20t34 -18t31 -10t33.5 -4.5q27 0 55.5 8.5t58.5 34.5t42 67v-128q-67 -62 -145 -62q-49 0 -93.5 17t-79 41.5t-68 49t-76 43.5t-89.5 22
q-149 0 -228 -174v146q47 56 107 85q-162 73 -262 225t-100 337q0 167 82 308.5t222.5 224t305.5 82.5zM569 1147q-137 0 -254.5 -73.5t-185.5 -196.5t-68 -263t68 -263.5t185.5 -197.5t254.5 -74q103 0 197 44t162 117t108 171t40 203t-40 203t-108 170.5t-162 116
t-197 43.5z" />
    <glyph glyph-name="r" unicode="r" horiz-adv-x="1097" 
d="M0 1229h428q172 0 293.5 -129.5t121.5 -314.5q-2 -169 -98 -289t-258 -142l296 -295q54 -54 75 -60h-192q12 20 -28 60l-291 291h-227v-291q0 -31 17 -60h-137q17 29 17 60v1110q0 31 -17 60zM120 1147v-715h308q124 0 216 97t95 256q0 157 -84.5 259.5t-226.5 102.5
h-308z" />
    <glyph glyph-name="s" unicode="s" horiz-adv-x="1101" 
d="M372 1224q61 6 101 2q184 -12 303 -99v-147q-36 64 -127 114.5t-219 50.5q-161 0 -261 -83t-100 -182q0 -43 13.5 -80t32.5 -63.5t52 -50.5t60.5 -38.5t71 -29.5t68.5 -22t68 -18q9 -2 40 -10t43 -11t38.5 -10t41.5 -12t36.5 -12t39.5 -14.5t35 -15.5q150 -72 150 -194
q0 -139 -120.5 -219t-311.5 -80q-111 0 -235 43.5t-212 131.5v161q31 -46 69.5 -87t93.5 -80.5t128.5 -63t154.5 -23.5q188 0 286 84q71 60 57.5 130t-104.5 105q-93 35 -255 77q-192 50 -281 108q-143 94 -143 260q0 140 106.5 250.5t279.5 127.5z" />
    <glyph glyph-name="t" unicode="t" horiz-adv-x="1024" 
d="M-41 1229h824v-74v-25q-29 17 -60 17h-301v-1088q0 -31 17 -60h-136q17 29 17 60v1028q0 24 4 39t8 18l5 3h-318q-31 0 -60 -17v17v82z" />
    <glyph glyph-name="u" unicode="u" horiz-adv-x="1095" 
d="M-20 1229h136q-17 -32 -17 -60v-783q0 -137 84 -221t221 -84q141 0 226.5 79.5t85.5 228.5v780q0 31 -17 60h137q-17 -29 -17 -60v-786q0 -173 -113 -278.5t-289 -105.5q-85 0 -159 23.5t-133 69t-93.5 121t-34.5 172.5v784q0 31 -17 60z" />
    <glyph glyph-name="v" unicode="v" horiz-adv-x="1196" 
d="M-82 1229h157q-14 -23 2 -60l393 -933l394 933q16 37 2 60h135q-29 -14 -48 -60l-494 -1170l-493 1170q-20 48 -48 60z" />
    <glyph glyph-name="w" unicode="w" horiz-adv-x="1714" 
d="M-82 1229h157q-14 -23 2 -60l393 -933l177 418q10 20 19 31.5t13 12.5l4 1l-198 470q-20 48 -48 60h156q-13 -22 3 -60l134 -318l134 318q16 37 2 60h135q-29 -14 -48 -60l-179 -423l215 -510l393 933q16 38 3 60h134q-28 -12 -48 -60l-493 -1170l-259 615l-260 -615
l-493 1170q-20 48 -48 60z" />
    <glyph glyph-name="x" unicode="x" horiz-adv-x="1032" 
d="M-82 1229h163q-11 -21 9 -60l293 -516l305 516q22 38 9 60h139q-25 -11 -53 -60l-353 -599l304 -534q19 -27 40 -37h-162q11 21 -8 60l-234 410l-241 -410q-22 -38 -9 -60h-140q26 11 54 60l256 435q12 20 22 31t14 12l5 1l-359 631q-28 49 -54 60z" />
    <glyph glyph-name="y" unicode="y" horiz-adv-x="1032" 
d="M-82 1229h163q-13 -22 9 -60l293 -517l305 517q22 38 9 60h139q-21 -10 -53 -60l-362 -613v-497q0 -29 18 -60h-137q17 29 17 60v500l-347 610q-28 49 -54 60z" />
    <glyph glyph-name="z" unicode="z" horiz-adv-x="909" 
d="M-12 1229h705l-596 -1148h485q31 0 60 17v-99h-703l596 1148h-487q-31 0 -60 -17v99z" />
    <glyph glyph-name="braceleft" unicode="{" horiz-adv-x="546" 
d="M262 1331v-61q-26 0 -42 -14q-15 -13 -25 -46q-10 -36 -18 -310q-4 -149 -24 -209q-16 -49 -45 -77q30 -28 45 -76q20 -60 24 -209q8 -274 18 -310q10 -33 25 -46q16 -14 42 -14v-61q-59 0 -97 35q-33 30 -48 83q-5 18 -9 48t-6 70t-3 69.5t-2 71.5t-1 52q-4 138 -20 185
q-10 33 -28 47q-17 14 -48 14v82q30 0 48 15q18 14 28 47q16 47 20 185q0 10 1 52t2 71.5t3 69t6 69.5t9 48q16 54 48 84q38 35 97 35z" />
    <glyph glyph-name="bar" unicode="|" horiz-adv-x="368" 
d="M0 1229h82v-1229h-82v1229z" />
    <glyph glyph-name="braceright" unicode="}" horiz-adv-x="546" 
d="M0 1331q59 0 97 -35q34 -31 49 -84q5 -18 9 -48t6 -69.5t3 -69t2 -71.5t1 -52q4 -138 20 -185q11 -34 27 -47q18 -15 48 -15v-82q-31 0 -48 -14q-16 -13 -27 -47q-16 -47 -20 -185q0 -10 -1 -52t-2 -71.5t-3 -69.5t-6 -70t-9 -48q-15 -52 -49 -83q-38 -35 -97 -35v61
q26 0 42 14q15 13 25 46q10 36 18 310q4 149 24 209q15 48 45 76q-29 28 -45 77q-20 60 -24 209q-8 274 -18 310q-10 33 -25 46q-16 14 -42 14v61z" />
    <glyph glyph-name="asciitilde" unicode="~" horiz-adv-x="888" 
d="M126 731h14q11 -1 21.5 -3t19.5 -4.5t20 -7t18 -7.5t18.5 -10t16.5 -10t17 -11.5t15.5 -11t16 -11.5t15.5 -11q91 -66 138 -67q69 -2 149 96v-116q-77 -64 -151 -62q-35 1 -72 15.5t-56.5 27.5t-55.5 39q-95 69 -137 72q-63 5 -133 -78v113q61 47 126 47z" />
    <glyph glyph-name="exclamdown" unicode="&#xa1;" horiz-adv-x="430" 
d="M141 0h-136q17 29 17 60l12 959h78l12 -959q0 -31 17 -60zM73 1083q-30 0 -51.5 21.5t-21.5 51.5t21.5 51.5t51.5 21.5t51.5 -21.5t21.5 -51.5t-21.5 -51.5t-51.5 -21.5z" />
    <glyph glyph-name="cent" unicode="&#xa2;" horiz-adv-x="1032" 
d="M357 1229h116q-17 -29 -17 -60v-128q171 -3 292 -92v-163q-26 65 -102.5 117t-189.5 56v-714q100 5 183 59.5t109 118.5v-163q-97 -94 -292 -97v-103q0 -31 17 -60h-116q17 29 17 60v108q-160 24 -267 147t-107 287t107.5 287.5t266.5 147.5v132q0 31 -17 60zM374 954
q-126 -23 -199 -122.5t-73 -229.5q0 -129 73.5 -228.5t198.5 -122.5v703z" />
    <glyph glyph-name="sterling" unicode="&#xa3;" horiz-adv-x="966" 
d="M345 1229q115 0 212 -68.5t125 -172.5l-94 -35q5 14 -4.5 43t-36.5 58q-48 52 -110.5 73.5t-120 13.5t-107 -42t-77.5 -84.5t-25.5 -121.5t43.5 -146q20 -37 47 -72q79 -100 104 -205h277q31 0 60 17v-116q-29 17 -60 17h-265q3 -49 -9 -104q-20 -91 -91 -203h58h101h247
q31 0 60 17v-99h-307h-102h-255l72 87q94 111 117 219q9 42 8 83h-152q-31 0 -60 -17v116q29 -17 60 -17h138q-21 67 -71 132q-1 1 -3 3.5t-3 3.5l-2 2q-37 49 -61 91q-55 99 -55 197.5t44.5 169.5t123.5 115.5t174 44.5z" />
    <glyph glyph-name="yen" unicode="&#xa5;" horiz-adv-x="1040" 
d="M-82 1229h163q-13 -22 9 -60l293 -516l305 516q22 38 9 60h139q-21 -10 -53 -60l-359 -608h212q31 0 60 17v-116q-29 17 -60 17h-215v-81h215q29 0 60 18v-117q-31 18 -60 18h-215v-258q0 -29 18 -60h-137q17 29 17 60v258h-200q-29 0 -60 -18v117q31 -18 60 -18h200v81
h-201q-30 0 -59 -17v116q29 -17 60 -17h199l-346 608q-28 49 -54 60z" />
    <glyph glyph-name="copyright" unicode="&#xa9;" 
d="M569 1229q165 0 305.5 -82.5t222 -224t81.5 -308.5t-81.5 -308.5t-222 -224t-305.5 -82.5t-305.5 82.5t-222.5 224t-82 308.5t82 308.5t222.5 224t305.5 82.5zM569 1147q-137 0 -254.5 -73.5t-185.5 -196.5t-68 -263t68 -263t185.5 -196.5t254.5 -73.5q103 0 197 43.5
t162 116t108 170.5t40 203t-40 203t-108 170.5t-162 116t-197 43.5zM577 997q157 0 268 -81l2 -1v-143l-9 -2q-23 57 -91 101.5t-170 44.5q-129 0 -210 -92q-75 -86 -75 -210q0 -123 76 -210q80 -92 209 -92q89 0 167 49q70 44 94 100l9 -2v-142l-1 -1q-37 -37 -114 -61
t-155 -24q-158 0 -270.5 112.5t-112.5 270.5t112.5 270.5t270.5 112.5z" />
    <glyph glyph-name="guillemotleft" unicode="&#xab;" horiz-adv-x="694" 
d="M227 824v-117l-112 -114l112 -115v-117l-227 232zM410 824v-117l-112 -114l112 -115v-117l-227 232z" />
    <glyph glyph-name="registered" unicode="&#xae;" 
d="M569 1229q165 0 305.5 -82.5t222 -224t81.5 -308.5t-81.5 -308.5t-222 -224t-305.5 -82.5t-305.5 82.5t-222.5 224t-82 308.5t82 308.5t222.5 224t305.5 82.5zM569 1147q-137 0 -254.5 -73.5t-185.5 -196.5t-68 -263t68 -263t185.5 -196.5t254.5 -73.5q103 0 197 43.5
t162 116t108 170.5t40 203t-40 203t-108 170.5t-162 116t-197 43.5zM317 1004h270q104 0 177.5 -78t73.5 -190v0q-2 -93 -51.5 -163t-134.5 -91l174 -172q3 -3 10 -9.5t10.5 -10t11 -8.5t15.5 -8h-166q6 10 3.5 18t-14.5 20l-162 162h-107v-151q0 -12 8 -26l13 -23h-131
l13 23q8 14 8 26v632q0 12 -8 26zM427 927v-376h160q64 0 112.5 50t49.5 135q0 84 -44 137q-44 54 -118 54h-160z" />
    <glyph glyph-name="plusminus" unicode="&#xb1;" horiz-adv-x="892" 
d="M264 893h82v-174h263v-82h-263v-178h-82v178h-264v82h264v174zM0 379h609v-82h-609v82z" />
    <glyph glyph-name="guillemotright" unicode="&#xbb;" horiz-adv-x="694" 
d="M183 824l227 -231l-227 -232v117l113 115l-113 114v117zM0 824l227 -231l-227 -232v117l112 115l-112 114v117z" />
    <glyph glyph-name="questiondown" unicode="&#xbf;" horiz-adv-x="903" 
d="M343 0q-95 0 -174 44.5t-123.5 115.5t-44.5 169.5t55 197.5q31 54 75 108.5t79 94t67.5 83t50.5 95t18 111.5h78q0 -156 -76 -271q-26 -39 -97 -124.5t-103 -141.5q-57 -113 -40.5 -202t82.5 -143.5t151 -54.5q81 0 157.5 55t87.5 139l94 -35q-28 -104 -125 -172.5
t-212 -68.5zM382 1083q-30 0 -52 21.5t-22 51.5t22 51.5t52 21.5t51.5 -21.5t21.5 -51.5t-21.5 -51.5t-51.5 -21.5z" />
    <glyph glyph-name="Agrave" unicode="&#xc0;" horiz-adv-x="1177" 
d="M353 1359h64l69 -93h-64zM459 1229l494 -1171q20 -47 48 -59h-157q11 21 -2 60l-98 232l-6 12q-6 18 -5 28.5t5 14.5l3 4h-563l-123 -291q-16 -38 -3 -60h-134q28 12 48 60zM448 992l-236 -560h472z" />
    <glyph glyph-name="Aacute" unicode="&#xc1;" horiz-adv-x="1177" 
d="M495 1359h64l-69 -93h-64zM459 1229l494 -1171q20 -47 48 -59h-157q11 21 -2 60l-98 232l-6 12q-6 18 -5 28.5t5 14.5l3 4h-563l-123 -291q-16 -38 -3 -60h-134q28 12 48 60zM448 992l-236 -560h472z" />
    <glyph glyph-name="Acircumflex" unicode="&#xc2;" horiz-adv-x="1177" 
d="M427 1359h64l70 -93h-64l-38 50l-37 -50h-64zM459 1229l494 -1171q20 -47 48 -59h-157q11 21 -2 60l-98 232l-6 12q-6 18 -5 28.5t5 14.5l3 4h-563l-123 -291q-16 -38 -3 -60h-134q28 12 48 60zM448 992l-236 -560h472z" />
    <glyph glyph-name="Atilde" unicode="&#xc3;" horiz-adv-x="1177" 
d="M407 1359h5q23 -1 57 -16q27 -12 40 -12q17 0 32 15l37 -36q-32 -32 -71 -30q-23 1 -57 16q-27 12 -40 12q-18 0 -33 -15l-36 36q28 28 66 30zM459 1229l494 -1171q20 -47 48 -59h-157q11 21 -2 60l-98 232l-6 12q-6 18 -5 28.5t5 14.5l3 4h-563l-123 -291
q-16 -38 -3 -60h-134q28 12 48 60zM448 992l-236 -560h472z" />
    <glyph glyph-name="Adieresis" unicode="&#xc4;" horiz-adv-x="1177" 
d="M367 1341h64v-57h-64v57zM467 1341h64v-57h-64v57zM459 1229l494 -1171q20 -47 48 -59h-157q11 21 -2 60l-98 232l-6 12q-6 18 -5 28.5t5 14.5l3 4h-563l-123 -291q-16 -38 -3 -60h-134q28 12 48 60zM448 992l-236 -560h472z" />
    <glyph glyph-name="Aring" unicode="&#xc5;" horiz-adv-x="1177" 
d="M459 1359q29 0 50.5 -21.5t21.5 -50.5q0 -28 -19 -48.5t-47 -22.5l488 -1158q20 -47 48 -59h-157q11 21 -2 60l-98 232l-6 12q-6 18 -5 28.5t5 14.5l3 4h-563l-123 -291q-16 -38 -3 -60h-134q28 12 48 60l488 1157q-28 2 -47 22.5t-19 48.5q0 29 21 50.5t50 21.5z
M459 1308q-20 0 -20 -21q0 -20 20 -20q21 0 21 20q0 9 -6 15t-15 6zM448 992l-236 -560h472z" />
    <glyph glyph-name="AE" unicode="&#xc6;" horiz-adv-x="1550" 
d="M459 1229h808v-99q-29 17 -59 17h-539v-715h449q31 0 60 17v-116q-29 17 -60 17h-449v-269h539q30 0 59 17v-99h-718q17 29 17 60v291h-388l-123 -291q-16 -38 -3 -60h-134q28 12 48 60zM515 1147l-303 -715h354v667v48h-51z" />
    <glyph glyph-name="Ccedilla" unicode="&#xc7;" horiz-adv-x="1304" 
d="M569 1232q128 0 241.5 -34.5t193.5 -98.5v-193q-11 28 -32 58.5t-59 66t-85 63.5t-115 46.5t-144 18.5q-137 0 -254.5 -76t-185.5 -201t-68 -265t68 -265.5t185.5 -202t254.5 -76.5q77 0 143.5 19t111.5 46.5t83 65.5t59 70t38 67v-194q-55 -56 -159 -98.5t-242 -48.5
v-61h-25q-22 0 -30 -8q-4 -4 -4 -7q0 -4 8 -7q17 -6 46 0l11 -50q-43 -10 -76 3q-34 14 -39 45q-5 32 20 54q15 13 38 18v12q-162 4 -298.5 88.5t-215.5 225t-79 304.5q0 167 82 308.5t222.5 224t305.5 82.5z" />
    <glyph glyph-name="Egrave" unicode="&#xc8;" horiz-adv-x="1001" 
d="M285 1359h64l69 -93h-63zM0 1229h718v-99q-29 17 -59 17h-539v-715h449q31 0 60 17v-116q-29 17 -60 17h-449v-269h539q30 0 59 17v-99h-718q17 29 17 60v1110q0 31 -17 60z" />
    <glyph glyph-name="Eacute" unicode="&#xc9;" horiz-adv-x="1001" 
d="M394 1359h64l-70 -93h-64zM0 1229h718v-99q-29 17 -59 17h-539v-715h449q31 0 60 17v-116q-29 17 -60 17h-449v-269h539q30 0 59 17v-99h-718q17 29 17 60v1110q0 31 -17 60z" />
    <glyph glyph-name="Ecircumflex" unicode="&#xca;" horiz-adv-x="1001" 
d="M340 1359h64l70 -93h-64l-38 50l-37 -50h-64zM0 1229h718v-99q-29 17 -59 17h-539v-715h449q31 0 60 17v-116q-29 17 -60 17h-449v-269h539q30 0 59 17v-99h-718q17 29 17 60v1110q0 31 -17 60z" />
    <glyph glyph-name="Edieresis" unicode="&#xcb;" horiz-adv-x="1001" 
d="M278 1341h64v-57h-64v57zM377 1341h64v-57h-64v57zM0 1229h718v-99q-29 17 -59 17h-539v-715h449q31 0 60 17v-116q-29 17 -60 17h-449v-269h539q30 0 59 17v-99h-718q17 29 17 60v1110q0 31 -17 60z" />
    <glyph glyph-name="Igrave" unicode="&#xcc;" horiz-adv-x="419" 
d="M-31 1359h64l70 -93h-64zM0 1229h136q-17 -29 -17 -60v-1110q0 -31 17 -60h-136q17 29 17 60v1110q0 31 -17 60z" />
    <glyph glyph-name="Iacute" unicode="&#xcd;" horiz-adv-x="419" 
d="M107 1359h64l-69 -93h-64zM0 1229h137q-17 -29 -17 -60v-1110q0 -31 17 -60h-137q17 29 17 60v1110q0 31 -17 60z" />
    <glyph glyph-name="Icircumflex" unicode="&#xce;" horiz-adv-x="419" 
d="M37 1359h64l69 -93h-64l-37 50l-38 -50h-64zM0 1229h137q-17 -29 -17 -60v-1110q0 -31 17 -60h-137q17 29 17 60v1110q0 31 -17 60z" />
    <glyph glyph-name="Idieresis" unicode="&#xcf;" horiz-adv-x="419" 
d="M-12 1341h64v-57h-64v57zM87 1341h64v-57h-64v57zM1 1229h137q-18 -31 -18 -60v-1110q0 -29 18 -60h-137q17 29 17 60v1110q0 31 -17 60z" />
    <glyph glyph-name="Eth" unicode="&#xd0;" horiz-adv-x="1134" 
d="M278 1229q279 0 448 -164q167 -162 167 -425q0 -274 -154 -449q-169 -192 -461 -192h-228q18 31 18 60v529h-88v51h88v530q0 29 -18 60h228zM170 1147v-508h97v-51h-97v-507h108q135 0 238 46q266 119 275 513q1 63 -13 128.5t-43 129t-81 116.5t-119 82q-116 51 -257 51
h-108z" />
    <glyph glyph-name="Ntilde" unicode="&#xd1;" horiz-adv-x="1208" 
d="M410 1359h4q24 -1 58 -16q27 -12 40 -12q17 0 32 15l36 -36q-32 -32 -70 -30q-23 1 -57 16q-27 12 -40 12q-18 0 -33 -15l-36 36q28 28 66 30zM0 1229h120l685 -1077v1017q0 29 -18 60h137q-17 -29 -17 -60v-1110q0 -31 17 -60h-119l-685 1077v-1017q0 -31 17 -60h-137
q17 29 17 60v1110q0 31 -17 60z" />
    <glyph glyph-name="Ograve" unicode="&#xd2;" 
d="M474 1359h64l70 -93h-64zM569 1229q165 0 305.5 -82.5t222 -224t81.5 -308.5t-81.5 -308.5t-222 -224t-305.5 -82.5t-305.5 82.5t-222.5 224t-82 308.5t82 308.5t222.5 224t305.5 82.5zM569 1155q-137 0 -254.5 -75.5t-185.5 -200.5t-68 -265t68 -265t185.5 -200.5
t254.5 -75.5q103 0 197 45t161.5 119t108 173t40.5 204t-40.5 204t-108 173t-161.5 119t-197 45z" />
    <glyph glyph-name="Oacute" unicode="&#xd3;" 
d="M602 1359h64l-70 -93h-64zM569 1229q165 0 305.5 -82.5t222 -224t81.5 -308.5t-81.5 -308.5t-222 -224t-305.5 -82.5t-305.5 82.5t-222.5 224t-82 308.5t82 308.5t222.5 224t305.5 82.5zM569 1155q-137 0 -254.5 -75.5t-185.5 -200.5t-68 -265t68 -265t185.5 -200.5
t254.5 -75.5q103 0 197 45t161.5 119t108 173t40.5 204t-40.5 204t-108 173t-161.5 119t-197 45z" />
    <glyph glyph-name="Ocircumflex" unicode="&#xd4;" 
d="M537 1359h64l69 -93h-64l-37 50l-38 -50h-64zM569 1229q165 0 305.5 -82.5t222 -224t81.5 -308.5t-81.5 -308.5t-222 -224t-305.5 -82.5t-305.5 82.5t-222.5 224t-82 308.5t82 308.5t222.5 224t305.5 82.5zM569 1155q-137 0 -254.5 -75.5t-185.5 -200.5t-68 -265t68 -265
t185.5 -200.5t254.5 -75.5q103 0 197 45t161.5 119t108 173t40.5 204t-40.5 204t-108 173t-161.5 119t-197 45z" />
    <glyph glyph-name="Otilde" unicode="&#xd5;" 
d="M516 1359h5q24 -1 58 -16q27 -12 40 -12q17 0 32 15l36 -36q-32 -32 -70 -30q-24 1 -58 16q-27 12 -40 12q-17 0 -32 -15l-37 36q28 28 66 30zM569 1229q165 0 305.5 -82.5t222 -224t81.5 -308.5t-81.5 -308.5t-222 -224t-305.5 -82.5t-305.5 82.5t-222.5 224t-82 308.5
t82 308.5t222.5 224t305.5 82.5zM569 1155q-137 0 -254.5 -75.5t-185.5 -200.5t-68 -265t68 -265t185.5 -200.5t254.5 -75.5q103 0 197 45t161.5 119t108 173t40.5 204t-40.5 204t-108 173t-161.5 119t-197 45z" />
    <glyph glyph-name="Odieresis" unicode="&#xd6;" 
d="M487 1341h64v-57h-64v57zM586 1341h64v-57h-64v57zM569 1229q165 0 305.5 -82.5t222 -224t81.5 -308.5t-81.5 -308.5t-222 -224t-305.5 -82.5t-305.5 82.5t-222.5 224t-82 308.5t82 308.5t222.5 224t305.5 82.5zM569 1155q-137 0 -254.5 -75.5t-185.5 -200.5t-68 -265
t68 -265t185.5 -200.5t254.5 -75.5q103 0 197 45t161.5 119t108 173t40.5 204t-40.5 204t-108 173t-161.5 119t-197 45z" />
    <glyph glyph-name="multiply" unicode="&#xd7;" horiz-adv-x="772" 
d="M58 353l-58 58l186 187l-186 186l58 58l186 -186l187 186l58 -58l-187 -186l187 -187l-58 -58l-187 187z" />
    <glyph glyph-name="Oslash" unicode="&#xd8;" 
d="M569 1229q226 0 397 -149l20 -17v-1q90 -86 141 -202t51 -246q0 -167 -81.5 -308.5t-222 -224t-305.5 -82.5q-198 0 -359 118v-1l-25 21q-1 1 -2.5 2t-2.5 1l-10 9q-99 86 -155 207.5t-56 257.5q0 167 82 308.5t222.5 224t305.5 82.5zM569 1155q-137 0 -254.5 -75.5
t-185.5 -200.5t-68 -265q0 -111 44.5 -214.5t122.5 -180.5l663 808q-143 128 -322 128zM927 991l-661 -807q137 -111 303 -111q103 0 197 45t161.5 119t108 173t40.5 204t-39.5 203t-109.5 174z" />
    <glyph glyph-name="Ugrave" unicode="&#xd9;" horiz-adv-x="1095" 
d="M316 1359h64l70 -93h-64zM-20 1229h136q-17 -32 -17 -60v-783q0 -137 84 -221t221 -84q141 0 226.5 79.5t85.5 228.5v780q0 31 -17 60h137q-17 -29 -17 -60v-786q0 -173 -113 -278.5t-289 -105.5q-85 0 -159 23.5t-133 69t-93.5 121t-34.5 172.5v784q0 31 -17 60z" />
    <glyph glyph-name="Uacute" unicode="&#xda;" horiz-adv-x="1095" 
d="M450 1359h63l-69 -93h-64zM-20 1229h136q-17 -32 -17 -60v-783q0 -137 84 -221t221 -84q141 0 226.5 79.5t85.5 228.5v780q0 31 -17 60h137q-17 -29 -17 -60v-786q0 -173 -113 -278.5t-289 -105.5q-85 0 -159 23.5t-133 69t-93.5 121t-34.5 172.5v784q0 31 -17 60z" />
    <glyph glyph-name="Ucircumflex" unicode="&#xdb;" horiz-adv-x="1095" 
d="M376 1359h64l69 -93h-64l-37 50l-38 -50h-64zM-20 1229h136q-17 -32 -17 -60v-783q0 -137 84 -221t221 -84q141 0 226.5 79.5t85.5 228.5v780q0 31 -17 60h137q-17 -29 -17 -60v-786q0 -173 -113 -278.5t-289 -105.5q-85 0 -159 23.5t-133 69t-93.5 121t-34.5 172.5v784
q0 31 -17 60z" />
    <glyph glyph-name="Udieresis" unicode="&#xdc;" horiz-adv-x="1095" 
d="M326 1341h64v-57h-64v57zM425 1341h64v-57h-64v57zM-20 1229h136q-17 -32 -17 -60v-783q0 -137 84 -221t221 -84q141 0 226.5 79.5t85.5 228.5v780q0 31 -17 60h137q-17 -29 -17 -60v-786q0 -173 -113 -278.5t-289 -105.5q-85 0 -159 23.5t-133 69t-93.5 121t-34.5 172.5
v784q0 31 -17 60z" />
    <glyph glyph-name="Yacute" unicode="&#xdd;" horiz-adv-x="1032" 
d="M424 1359h64l-70 -93h-64zM-82 1229h163q-13 -22 9 -60l293 -517l305 517q22 38 9 60h139q-21 -10 -53 -60l-362 -613v-497q0 -29 18 -60h-137q17 29 17 60v500l-347 610q-28 49 -54 60z" />
    <glyph glyph-name="Thorn" unicode="&#xde;" horiz-adv-x="1085" 
d="M0 1229h137q-17 -29 -17 -60v-116h308q172 0 293.5 -129.5t121.5 -314.5q-2 -185 -115 -308.5t-300 -125.5h-308v-116q0 -31 17 -60h-137q17 29 17 60v1110q0 31 -17 60zM120 971v-714h308q124 0 216 96.5t95 255.5q0 157 -84.5 259.5t-226.5 102.5h-308z" />
    <glyph glyph-name="germandbls" unicode="&#xdf;" horiz-adv-x="1105" 
d="M428 1229q176 0 295.5 -110.5t119.5 -291.5q0 -167 -106 -270q-32 -31 -78 -56q46 -15 82 -39q50 -34 76 -85t26 -109q0 -74 -37 -129t-99 -85t-132.5 -43.5t-146.5 -11.5h-146v82h146q51 0 99.5 8t99 27.5t81.5 59t31 95.5q0 53 -28 90t-76.5 55t-97 25.5t-105.5 7.5h-4
h-62h-86v82h148h6q61 1 113 17t96 49.5t69.5 92.5t26.5 137q0 153 -82.5 236.5t-228.5 83.5q-142 -1 -224 -83t-84 -230v-775q0 -31 17 -60h-17h-9h-85h-9h-17q17 29 17 60v775q2 177 120 285t291 110z" />
    <glyph glyph-name="agrave" unicode="&#xe0;" horiz-adv-x="1155" 
d="M360 1359h64l69 -93h-64zM426 1229h7q54 -2 103 -13q145 -34 243 -152.5t98 -298.5v-309v-396q0 -31 17 -60h-137q17 29 17 60v108q-64 -79 -157 -124.5t-199 -45.5q-124 0 -230 61.5t-167.5 167t-61.5 229.5t61.5 229.5t167.5 166.5t230 61q106 0 199 -45.5t157 -124.5
v22q-2 75 -23.5 141.5t-62 121.5t-108 87t-153.5 32q-115 0 -186.5 -53t-87.5 -117v165q112 85 266 87h7zM418 831q-156 -1 -256.5 -112t-100.5 -263q0 -154 98.5 -265t258.5 -111t258 111t98 265q0 99 -44 184.5t-126.5 138t-185.5 52.5z" />
    <glyph glyph-name="aacute" unicode="&#xe1;" horiz-adv-x="1155" 
d="M429 1359h64l-69 -93h-64zM426 1229h7q54 -2 103 -13q145 -34 243 -152.5t98 -298.5v-309v-396q0 -31 17 -60h-137q17 29 17 60v108q-64 -79 -157 -124.5t-199 -45.5q-124 0 -230 61.5t-167.5 167t-61.5 229.5t61.5 229.5t167.5 166.5t230 61q106 0 199 -45.5t157 -124.5
v22q-2 75 -23.5 141.5t-62 121.5t-108 87t-153.5 32q-115 0 -186.5 -53t-87.5 -117v165q112 85 266 87h7zM418 831q-156 -1 -256.5 -112t-100.5 -263q0 -154 98.5 -265t258.5 -111t258 111t98 265q0 99 -44 184.5t-126.5 138t-185.5 52.5z" />
    <glyph glyph-name="acircumflex" unicode="&#xe2;" horiz-adv-x="1155" 
d="M394 1359h64l70 -93h-64l-38 50l-37 -50h-64zM426 1229h7q54 -2 103 -13q145 -34 243 -152.5t98 -298.5v-309v-396q0 -31 17 -60h-137q17 29 17 60v108q-64 -79 -157 -124.5t-199 -45.5q-124 0 -230 61.5t-167.5 167t-61.5 229.5t61.5 229.5t167.5 166.5t230 61
q106 0 199 -45.5t157 -124.5v22q-2 75 -23.5 141.5t-62 121.5t-108 87t-153.5 32q-115 0 -186.5 -53t-87.5 -117v165q112 85 266 87h7zM418 831q-156 -1 -256.5 -112t-100.5 -263q0 -154 98.5 -265t258.5 -111t258 111t98 265q0 99 -44 184.5t-126.5 138t-185.5 52.5z" />
    <glyph glyph-name="atilde" unicode="&#xe3;" horiz-adv-x="1155" 
d="M374 1359h5q23 -1 57 -16q27 -12 40 -12q17 0 32 15l37 -36q-32 -32 -70 -30q-24 1 -58 16q-27 12 -40 12q-18 0 -33 -15l-36 36q28 28 66 30zM426 1229h7q54 -2 103 -13q145 -34 243 -152.5t98 -298.5v-309v-396q0 -31 17 -60h-137q17 29 17 60v108q-64 -79 -157 -124.5
t-199 -45.5q-124 0 -230 61.5t-167.5 167t-61.5 229.5t61.5 229.5t167.5 166.5t230 61q106 0 199 -45.5t157 -124.5v22q-2 75 -23.5 141.5t-62 121.5t-108 87t-153.5 32q-115 0 -186.5 -53t-87.5 -117v165q112 85 266 87h7zM418 831q-156 -1 -256.5 -112t-100.5 -263
q0 -154 98.5 -265t258.5 -111t258 111t98 265q0 99 -44 184.5t-126.5 138t-185.5 52.5z" />
    <glyph glyph-name="adieresis" unicode="&#xe4;" horiz-adv-x="1155" 
d="M345 1341h64v-57h-64v57zM444 1341h64v-57h-64v57zM426 1229h7q54 -2 103 -13q145 -34 243 -152.5t98 -298.5v-309v-396q0 -31 17 -60h-137q17 29 17 60v108q-64 -79 -157 -124.5t-199 -45.5q-124 0 -230 61.5t-167.5 167t-61.5 229.5t61.5 229.5t167.5 166.5t230 61
q106 0 199 -45.5t157 -124.5v22q-2 75 -23.5 141.5t-62 121.5t-108 87t-153.5 32q-115 0 -186.5 -53t-87.5 -117v165q112 85 266 87h7zM418 831q-156 -1 -256.5 -112t-100.5 -263q0 -154 98.5 -265t258.5 -111t258 111t98 265q0 99 -44 184.5t-126.5 138t-185.5 52.5z" />
    <glyph glyph-name="aring" unicode="&#xe5;" horiz-adv-x="1155" 
d="M426 1359q29 0 50.5 -21.5t21.5 -50.5q0 -39 -33 -60q42 -4 71 -11q145 -34 243 -152.5t98 -298.5v-309v-396q0 -31 17 -60h-137q17 29 17 60v108q-64 -79 -157 -124.5t-199 -45.5q-124 0 -230 61.5t-167.5 167t-61.5 229.5t61.5 229.5t167.5 166.5t230 61
q106 0 199 -45.5t157 -124.5v22q-2 75 -23.5 141.5t-62 121.5t-108 87t-153.5 32q-115 0 -186.5 -53t-87.5 -117v165q99 76 234 86q-32 22 -32 59q0 29 21 50.5t50 21.5zM426 1308q-20 0 -20 -21q0 -20 20 -20q21 0 21 20q0 9 -6 15t-15 6zM418 831q-156 -1 -256.5 -112
t-100.5 -263q0 -154 98.5 -265t258.5 -111t258 111t98 265q0 99 -44 184.5t-126.5 138t-185.5 52.5z" />
    <glyph glyph-name="ae" unicode="&#xe6;" horiz-adv-x="2082" 
d="M1384 1232q77 0 150 -21.5t134 -63t98 -109.5t37 -153q0 -58 -19 -107t-50 -83t-77.5 -63.5t-94 -48t-107 -36t-108.5 -29t-106.5 -25.5t-94.5 -26q-87 -34 -119 -107q-19 -39 -12.5 -74.5t27.5 -63t60 -54.5q123 -87 288 -87q76 0 147.5 25.5t123.5 65.5t88.5 82
t53.5 80v-166q-84 -79 -192.5 -124t-226.5 -45q-156 0 -290 74t-217 201v-214q0 -31 17 -60h-137q17 29 17 60v108q-64 -79 -157 -124.5t-199 -45.5q-124 0 -230 61.5t-167.5 167t-61.5 229.5t61.5 229.5t167.5 166.5t230 61q106 0 199 -45.5t157 -124.5v22
q-2 75 -23.5 141.5t-62 121.5t-108 87t-153.5 32q-115 0 -186.5 -53t-87.5 -117v165q112 85 266 87h7h7q54 -2 103 -13q110 -26 196 -102.5t122 -193.5q80 142 221.5 227t308.5 85zM1384 1150q-103 0 -197 -43.5t-162 -116t-108 -171t-40 -203.5q0 -121 51 -232q12 31 31 54
q50 64 166 108q44 17 195.5 54.5t225.5 77.5q58 33 102 91.5t44 123.5q0 122 -87 189.5t-221 67.5zM418 831q-156 -1 -256.5 -112t-100.5 -263q0 -154 98.5 -265t258.5 -111t258 111t98 265q0 99 -44 184.5t-126.5 138t-185.5 52.5z" />
    <glyph glyph-name="ccedilla" unicode="&#xe7;" horiz-adv-x="1304" 
d="M569 1232q128 0 241.5 -34.5t193.5 -98.5v-193q-11 28 -32 57.5t-59 64t-85 61t-115 44t-144 17.5q-137 0 -254.5 -73.5t-185.5 -196.5t-68 -263t68 -264t185.5 -198.5t254.5 -74.5q77 0 143.5 18t111.5 44.5t83 63.5t59 69t38 66v-194q-55 -56 -159 -98.5t-242 -48.5
v-61h-25q-22 0 -30 -8q-4 -4 -4 -7q0 -4 8 -7q17 -6 46 0l11 -50q-43 -10 -76 3q-34 14 -39 45q-5 32 20 54q15 13 38 18v12q-162 4 -298.5 88.5t-215.5 225t-79 304.5q0 167 82 308.5t222.5 224t305.5 82.5z" />
    <glyph glyph-name="egrave" unicode="&#xe8;" horiz-adv-x="1267" 
d="M407 1359h64l69 -93h-64zM569 1232q77 0 150 -21.5t134 -63t98 -109.5t37 -153q0 -58 -19 -107t-50.5 -83t-78 -63.5t-93.5 -48t-106.5 -36t-108.5 -29t-107 -25.5t-95 -26q-87 -34 -119 -107q-19 -39 -12 -74.5t28 -62.5t60 -55q123 -87 288 -87q76 0 147.5 25.5
t123.5 65.5t88.5 82t53.5 80v-166q-84 -79 -192.5 -124t-226.5 -45q-165 0 -305.5 82.5t-222.5 225t-82 309.5t82 309t222.5 224.5t305.5 82.5zM569 1150q-137 0 -254.5 -73.5t-185.5 -196.5t-68 -264q0 -119 52 -232q12 31 31 54q50 64 166 108q44 17 195.5 54.5
t225.5 77.5q58 33 102 91.5t44 123.5q0 122 -87 189.5t-221 67.5z" />
    <glyph glyph-name="eacute" unicode="&#xe9;" horiz-adv-x="1267" 
d="M476 1359h64l-69 -93h-64zM569 1232q77 0 150 -21.5t134 -63t98 -109.5t37 -153q0 -58 -19 -107t-50.5 -83t-78 -63.5t-93.5 -48t-106.5 -36t-108.5 -29t-107 -25.5t-95 -26q-87 -34 -119 -107q-19 -39 -12 -74.5t28 -62.5t60 -55q123 -87 288 -87q76 0 147.5 25.5
t123.5 65.5t88.5 82t53.5 80v-166q-84 -79 -192.5 -124t-226.5 -45q-165 0 -305.5 82.5t-222.5 225t-82 309.5t82 309t222.5 224.5t305.5 82.5zM569 1150q-137 0 -254.5 -73.5t-185.5 -196.5t-68 -264q0 -119 52 -232q12 31 31 54q50 64 166 108q44 17 195.5 54.5
t225.5 77.5q58 33 102 91.5t44 123.5q0 106 -80 181.5t-228 75.5z" />
    <glyph glyph-name="ecircumflex" unicode="&#xea;" horiz-adv-x="1267" 
d="M442 1359h64l69 -93h-64l-37 50l-38 -50h-64zM569 1232q77 0 150 -21.5t134 -63t98 -109.5t37 -153q0 -58 -19 -107t-50.5 -83t-78 -63.5t-93.5 -48t-106.5 -36t-108.5 -29t-107 -25.5t-95 -26q-87 -34 -119 -107q-19 -39 -12 -74.5t28 -62.5t60 -55q123 -87 288 -87
q76 0 147.5 25.5t123.5 65.5t88.5 82t53.5 80v-166q-84 -79 -192.5 -124t-226.5 -45q-165 0 -305.5 82.5t-222.5 225t-82 309.5t82 309t222.5 224.5t305.5 82.5zM569 1150q-137 0 -254.5 -73.5t-185.5 -196.5t-68 -264q0 -119 52 -232q12 31 31 54q50 64 166 108
q44 17 195.5 54.5t225.5 77.5q58 33 102 91.5t44 123.5q0 122 -87 189.5t-221 67.5z" />
    <glyph glyph-name="edieresis" unicode="&#xeb;" horiz-adv-x="1267" 
d="M392 1341h64v-57h-64v57zM491 1341h64v-57h-64v57zM569 1232q77 0 150 -21.5t134 -63t98 -109.5t37 -153q0 -58 -19 -107t-50.5 -83t-78 -63.5t-93.5 -48t-106.5 -36t-108.5 -29t-107 -25.5t-95 -26q-87 -34 -119 -107q-19 -39 -12 -74.5t28 -62.5t60 -55
q123 -87 288 -87q76 0 147.5 25.5t123.5 65.5t88.5 82t53.5 80v-166q-84 -79 -192.5 -124t-226.5 -45q-165 0 -305.5 82.5t-222.5 225t-82 309.5t82 309t222.5 224.5t305.5 82.5zM569 1150q-137 0 -254.5 -73.5t-185.5 -196.5t-68 -264q0 -119 52 -232q12 31 31 54
q50 64 166 108q44 17 195.5 54.5t225.5 77.5q58 33 102 91.5t44 123.5q0 122 -87 189.5t-221 67.5z" />
    <glyph glyph-name="igrave" unicode="&#xec;" horiz-adv-x="417" 
d="M-31 1359h64l70 -93h-64zM0 1229h136q-17 -29 -17 -60v-1110q0 -31 17 -60h-136q17 29 17 60v1110q0 31 -17 60z" />
    <glyph glyph-name="iacute" unicode="&#xed;" horiz-adv-x="417" 
d="M107 1359h64l-69 -93h-64zM0 1229h137q-17 -29 -17 -60v-1110q0 -31 17 -60h-137q17 29 17 60v1110q0 31 -17 60z" />
    <glyph glyph-name="icircumflex" unicode="&#xee;" horiz-adv-x="417" 
d="M37 1359h64l69 -93h-64l-37 50l-38 -50h-64zM0 1229h137q-17 -29 -17 -60v-1110q0 -31 17 -60h-137q17 29 17 60v1110q0 31 -17 60z" />
    <glyph glyph-name="idieresis" unicode="&#xef;" horiz-adv-x="417" 
d="M-12 1341h64v-57h-64v57zM87 1341h64v-57h-64v57zM1 1229h137q-18 -31 -18 -60v-1110q0 -29 18 -60h-137q17 29 17 60v1110q0 31 -17 60z" />
    <glyph glyph-name="ntilde" unicode="&#xf1;" horiz-adv-x="1097" 
d="M355 1359h4q24 -1 58 -16q27 -12 40 -12q17 0 32 15l36 -36q-32 -32 -70 -30q-23 1 -57 16q-27 12 -40 12q-18 0 -33 -15l-36 36q28 28 66 30zM406 1230q156 -2 254 -82q137 -113 137 -350v-739q0 -31 17 -60h-136q17 29 17 60v738q-1 46 -9.5 92t-29.5 93.5t-51.5 83.5
t-80 58.5t-111.5 22.5q-77 0 -135 -28t-91.5 -77.5t-49.5 -110.5t-17 -133v-739q0 -31 17 -60h-137q17 29 17 60v739v371q0 31 -17 60h137q-17 -29 -17 -60v-59q10 12 32 32q104 88 254 88z" />
    <glyph glyph-name="ograve" unicode="&#xf2;" 
d="M474 1359h64l70 -93h-64zM569 1229q165 0 305.5 -82.5t222 -224t81.5 -308.5t-81.5 -308.5t-222 -224t-305.5 -82.5t-305.5 82.5t-222.5 224t-82 308.5t82 308.5t222.5 224t305.5 82.5zM569 1147q-137 0 -254.5 -73.5t-185.5 -196.5t-68 -263t68 -263t185.5 -196.5
t254.5 -73.5q103 0 197 43.5t162 116t108 170.5t40 203t-40 203t-108 170.5t-162 116t-197 43.5z" />
    <glyph glyph-name="oacute" unicode="&#xf3;" 
d="M602 1359h64l-70 -93h-64zM569 1229q165 0 305.5 -82.5t222 -224t81.5 -308.5t-81.5 -308.5t-222 -224t-305.5 -82.5t-305.5 82.5t-222.5 224t-82 308.5t82 308.5t222.5 224t305.5 82.5zM569 1147q-137 0 -254.5 -73.5t-185.5 -196.5t-68 -263t68 -263t185.5 -196.5
t254.5 -73.5q103 0 197 43.5t162 116t108 170.5t40 203t-40 203t-108 170.5t-162 116t-197 43.5z" />
    <glyph glyph-name="ocircumflex" unicode="&#xf4;" 
d="M537 1359h64l69 -93h-64l-37 50l-38 -50h-64zM569 1229q165 0 305.5 -82.5t222 -224t81.5 -308.5t-81.5 -308.5t-222 -224t-305.5 -82.5t-305.5 82.5t-222.5 224t-82 308.5t82 308.5t222.5 224t305.5 82.5zM569 1147q-137 0 -254.5 -73.5t-185.5 -196.5t-68 -263t68 -263
t185.5 -196.5t254.5 -73.5q103 0 197 43.5t162 116t108 170.5t40 203t-40 203t-108 170.5t-162 116t-197 43.5z" />
    <glyph glyph-name="otilde" unicode="&#xf5;" 
d="M516 1359h5q24 -1 58 -16q27 -12 40 -12q17 0 32 15l36 -36q-32 -32 -70 -30q-24 1 -58 16q-27 12 -40 12q-17 0 -32 -15l-37 36q28 28 66 30zM569 1229q165 0 305.5 -82.5t222 -224t81.5 -308.5t-81.5 -308.5t-222 -224t-305.5 -82.5t-305.5 82.5t-222.5 224t-82 308.5
t82 308.5t222.5 224t305.5 82.5zM569 1147q-137 0 -254.5 -73.5t-185.5 -196.5t-68 -263t68 -263t185.5 -196.5t254.5 -73.5q103 0 197 43.5t162 116t108 170.5t40 203t-40 203t-108 170.5t-162 116t-197 43.5z" />
    <glyph glyph-name="odieresis" unicode="&#xf6;" 
d="M487 1341h64v-57h-64v57zM586 1341h64v-57h-64v57zM569 1229q165 0 305.5 -82.5t222 -224t81.5 -308.5t-81.5 -308.5t-222 -224t-305.5 -82.5t-305.5 82.5t-222.5 224t-82 308.5t82 308.5t222.5 224t305.5 82.5zM569 1147q-137 0 -254.5 -73.5t-185.5 -196.5t-68 -263
t68 -263t185.5 -196.5t254.5 -73.5q103 0 197 43.5t162 116t108 170.5t40 203t-40 203t-108 170.5t-162 116t-197 43.5z" />
    <glyph glyph-name="divide" unicode="&#xf7;" horiz-adv-x="892" 
d="M333 863q30 0 51.5 -21.5t21.5 -51.5t-21.5 -51.5t-51.5 -21.5t-51.5 21.5t-21.5 51.5t21.5 51.5t51.5 21.5zM0 639h609v-82h-609v82zM333 489q30 0 51.5 -22t21.5 -52t-21.5 -51.5t-51.5 -21.5t-51.5 21.5t-21.5 51.5t21.5 52t51.5 22z" />
    <glyph glyph-name="oslash" unicode="&#xf8;" 
d="M569 1229q226 0 397 -149l20 -17v-1q90 -86 141 -202t51 -246q0 -167 -81.5 -308.5t-222 -224t-305.5 -82.5q-198 0 -359 118v-1l-25 21q-1 1 -2.5 2t-2.5 1l-10 9q-99 86 -155 207.5t-56 257.5q0 167 82 308.5t222.5 224t305.5 82.5zM569 1147q-137 0 -254.5 -73.5
t-185.5 -196.5t-68 -263q0 -111 44.5 -214.5t122.5 -180.5l663 808q-134 120 -322 120zM927 991l-661 -807q127 -103 303 -103q103 0 197 43.5t162 116t108 170.5t40 203t-39.5 203t-109.5 174z" />
    <glyph glyph-name="ugrave" unicode="&#xf9;" horiz-adv-x="1095" 
d="M316 1359h64l70 -93h-64zM-20 1229h136q-17 -32 -17 -60v-783q0 -137 84 -221t221 -84q141 0 226.5 79.5t85.5 228.5v780q0 31 -17 60h137q-17 -29 -17 -60v-786q0 -173 -113 -278.5t-289 -105.5q-85 0 -159 23.5t-133 69t-93.5 121t-34.5 172.5v784q0 31 -17 60z" />
    <glyph glyph-name="uacute" unicode="&#xfa;" horiz-adv-x="1095" 
d="M450 1359h63l-69 -93h-64zM-20 1229h136q-17 -32 -17 -60v-783q0 -137 84 -221t221 -84q141 0 226.5 79.5t85.5 228.5v780q0 31 -17 60h137q-17 -29 -17 -60v-786q0 -173 -113 -278.5t-289 -105.5q-85 0 -159 23.5t-133 69t-93.5 121t-34.5 172.5v784q0 31 -17 60z" />
    <glyph glyph-name="ucircumflex" unicode="&#xfb;" horiz-adv-x="1095" 
d="M376 1359h64l69 -93h-64l-37 50l-38 -50h-64zM-20 1229h136q-17 -32 -17 -60v-783q0 -137 84 -221t221 -84q141 0 226.5 79.5t85.5 228.5v780q0 31 -17 60h137q-17 -29 -17 -60v-786q0 -173 -113 -278.5t-289 -105.5q-85 0 -159 23.5t-133 69t-93.5 121t-34.5 172.5v784
q0 31 -17 60z" />
    <glyph glyph-name="udieresis" unicode="&#xfc;" horiz-adv-x="1095" 
d="M326 1341h64v-57h-64v57zM425 1341h64v-57h-64v57zM-20 1229h136q-17 -32 -17 -60v-783q0 -137 84 -221t221 -84q141 0 226.5 79.5t85.5 228.5v780q0 31 -17 60h137q-17 -29 -17 -60v-786q0 -173 -113 -278.5t-289 -105.5q-85 0 -159 23.5t-133 69t-93.5 121t-34.5 172.5
v784q0 31 -17 60z" />
    <glyph glyph-name="yacute" unicode="&#xfd;" horiz-adv-x="1032" 
d="M424 1359h64l-70 -93h-64zM-82 1229h163q-13 -22 9 -60l293 -517l305 517q22 38 9 60h139q-21 -10 -53 -60l-362 -613v-497q0 -29 18 -60h-137q17 29 17 60v500l-347 610q-28 49 -54 60z" />
    <glyph glyph-name="thorn" unicode="&#xfe;" horiz-adv-x="1085" 
d="M0 1229h137q-17 -29 -17 -60v-116h308q172 0 293.5 -129.5t121.5 -314.5q-2 -185 -115 -308.5t-300 -125.5h-308v-116q0 -31 17 -60h-137q17 29 17 60v1110q0 31 -17 60zM120 971v-714h308q124 0 216 96.5t95 255.5q0 157 -84.5 259.5t-226.5 102.5h-308z" />
    <glyph glyph-name="ydieresis" unicode="&#xff;" horiz-adv-x="1032" 
d="M296 1341h64v-57h-64v57zM395 1341h64v-57h-64v57zM-82 1229h163q-13 -22 9 -60l293 -517l305 517q22 38 9 60h139q-21 -10 -53 -60l-362 -613v-497q0 -29 18 -60h-137q17 29 17 60v500l-347 610q-28 49 -54 60z" />
    <glyph glyph-name="OE" unicode="&#x152;" horiz-adv-x="1554" 
d="M552 1229h17h701v-99q-29 17 -59 17h-540v-715h450q31 0 60 17v-116q-29 17 -60 17h-450v-269h540q30 0 59 17v-99h-718q-121 3 -231 53.5t-189.5 132.5t-126 194t-46.5 235t46.5 235t126 194t189.5 132.5t231 53.5zM569 1147h-5q-102 -1 -195.5 -45t-160.5 -116.5
t-107 -170t-40 -201.5q0 -140 68 -263t185.5 -196.5t254.5 -73.5v1041v25z" />
    <glyph glyph-name="oe" unicode="&#x153;" horiz-adv-x="2381" 
d="M1685 1232q77 0 150 -21.5t134.5 -63t98.5 -109.5t37 -153q0 -58 -19 -107t-50.5 -83t-78 -63.5t-93.5 -48t-106.5 -36t-108.5 -29t-107 -25.5t-95 -26q-87 -34 -119 -107q-19 -39 -12.5 -74.5t27.5 -63t60 -54.5q123 -87 289 -87q76 0 147.5 25.5t123.5 65.5t88.5 82
t53.5 80v-166q-84 -79 -193 -124t-227 -45q-185 0 -335.5 102t-222.5 268q-72 -165 -223 -266.5t-335 -101.5q-165 0 -305.5 82.5t-222.5 224t-82 308.5t82 308.5t222.5 223.5t305.5 82q184 0 335 -101.5t223 -266.5q72 166 222.5 268t335.5 102zM1685 1150
q-134 0 -252.5 -79.5t-186.5 -202.5t-68 -252q0 -119 52 -232q12 31 31 54q50 64 166 108q44 17 195 54.5t225 77.5q58 33 102.5 91.5t44.5 123.5q0 122 -87 189.5t-222 67.5zM569 1157q-137 0 -254.5 -75.5t-185.5 -200.5t-68 -265t68 -265t185.5 -201t254.5 -76
q85 3 175 46.5t163.5 114.5t121 172t47.5 209q0 105 -40.5 204t-108 173t-161.5 119t-197 45z" />
    <glyph glyph-name="Scaron" unicode="&#x160;" horiz-adv-x="1101" 
d="M318 1359h64l37 -50l38 50h64l-70 -93h-64zM435 1227q25 0 38 -1q184 -12 303 -99v-147q-37 65 -128 117.5t-218 52.5q-160 0 -260.5 -85t-100.5 -185q0 -43 13.5 -80t32.5 -63.5t52 -50.5t60.5 -38.5t71 -29.5t68.5 -22t68 -18q9 -2 40 -10t43 -11t38.5 -10t41.5 -12
t36.5 -12t39.5 -14.5t35 -15.5q150 -72 150 -194q0 -139 -120.5 -219t-311.5 -80q-111 0 -235 43.5t-212 131.5v161q31 -47 69.5 -87.5t93.5 -81t128.5 -64.5t154.5 -24q188 0 286 85q71 61 57.5 131.5t-104.5 105.5q-93 35 -255 77q-192 50 -281 108q-143 94 -143 260
q0 140 106.5 250.5t279.5 127.5q30 3 63 3z" />
    <glyph glyph-name="scaron" unicode="&#x161;" horiz-adv-x="1101" 
d="M318 1359h64l37 -50l38 50h64l-70 -93h-64zM435 1227q25 0 38 -1q184 -12 303 -99v-147q-37 65 -128 117.5t-218 52.5q-160 0 -260.5 -85t-100.5 -185q0 -43 13.5 -80t32.5 -63.5t52 -50.5t60.5 -38.5t71 -29.5t68.5 -22t68 -18q9 -2 40 -10t43 -11t38.5 -10t41.5 -12
t36.5 -12t39.5 -14.5t35 -15.5q150 -72 150 -194q0 -139 -120.5 -219t-311.5 -80q-111 0 -235 43.5t-212 131.5v161q31 -47 69.5 -87.5t93.5 -81t128.5 -64.5t154.5 -24q188 0 286 85q71 61 57.5 131.5t-104.5 105.5q-93 35 -255 77q-192 50 -281 108q-143 94 -143 260
q0 140 106.5 250.5t279.5 127.5q30 3 63 3z" />
    <glyph glyph-name="Ydieresis" unicode="&#x178;" horiz-adv-x="1032" 
d="M296 1341h64v-57h-64v57zM395 1341h64v-57h-64v57zM-82 1229h163q-13 -22 9 -60l293 -517l305 517q22 38 9 60h139q-21 -10 -53 -60l-362 -613v-497q0 -29 18 -60h-137q17 29 17 60v500l-347 610q-28 49 -54 60z" />
    <glyph glyph-name="Zcaron" unicode="&#x17d;" horiz-adv-x="909" 
d="M214 1359h64l38 -50l37 50h64l-69 -93h-64zM693 1229l-596 -1148h485q31 0 60 17v-99h-703l596 1148h-487q-31 0 -60 -17v99h705z" />
    <glyph glyph-name="zcaron" unicode="&#x17e;" horiz-adv-x="909" 
d="M214 1359h64l38 -50l37 50h64l-69 -93h-64zM693 1229l-596 -1148h485q31 0 60 17v-99h-703l596 1148h-487q-31 0 -60 -17v99h705z" />
    <glyph glyph-name="endash" unicode="&#x2013;" horiz-adv-x="1187" 
d="M0 639h905v-82h-905v82z" />
    <glyph glyph-name="emdash" unicode="&#x2014;" horiz-adv-x="1495" 
d="M0 639h1212v-82h-1212v82z" />
    <glyph glyph-name="quoteleft" unicode="&#x2018;" horiz-adv-x="223" 
d="M-29 1018q-30 0 -51.5 21.5t-21.5 51.5q0 51 33 90q41 48 109 48v-21q-61 0 -94 -40q-2 -2 -4 -6t-4 -6q18 8 33 8q30 0 51.5 -21.5t21.5 -51.5t-21.5 -51.5t-51.5 -21.5z" />
    <glyph glyph-name="quoteright" unicode="&#x2019;" horiz-adv-x="223" 
d="M-29 1229q30 0 51.5 -21.5t21.5 -51.5q0 -51 -33 -90q-41 -48 -110 -48v20q60 0 94 41q1 2 4 5.5t5 5.5q-16 -7 -33 -7q-30 0 -51.5 21.5t-21.5 51.5t21.5 51.5t51.5 21.5z" />
    <glyph glyph-name="quotesinglbase" unicode="&#x201a;" horiz-adv-x="208" 
d="M-37 140q27 0 46 -21.5t19 -51.5q0 -29 -28 -69.5t-28 -68.5h-18q0 27 -28 67t-28 71q0 30 19 51.5t46 21.5z" />
    <glyph glyph-name="quotedblleft" unicode="&#x201c;" horiz-adv-x="403" 
d="M151 1018q-30 0 -51.5 21.5t-21.5 51.5q0 51 33 90q41 48 109 48v-21q-60 0 -93 -40l-9 -12q18 8 33 8q30 0 51.5 -21.5t21.5 -51.5t-21.5 -51.5t-51.5 -21.5zM-29 1018q-30 0 -51.5 21.5t-21.5 51.5q0 51 33 90q41 48 109 48v-21q-61 0 -94 -40q-2 -2 -4 -6t-4 -6
q18 8 33 8q30 0 51.5 -21.5t21.5 -51.5t-21.5 -51.5t-51.5 -21.5z" />
    <glyph glyph-name="quotedblright" unicode="&#x201d;" horiz-adv-x="403" 
d="M-29 1229q30 0 51.5 -21.5t21.5 -51.5q0 -51 -33 -90q-41 -48 -110 -48v20q60 0 94 41q1 2 4 5.5t5 5.5q-16 -7 -33 -7q-30 0 -51.5 21.5t-21.5 51.5t21.5 51.5t51.5 21.5zM151 1229q30 0 51.5 -21.5t21.5 -51.5q0 -51 -33 -90q-41 -48 -109 -48v20q59 0 93 41q1 2 4 5.5
t5 5.5q-16 -7 -33 -7q-30 0 -51.5 21.5t-21.5 51.5t21.5 51.5t51.5 21.5z" />
    <glyph glyph-name="quotedblbase" unicode="&#x201e;" horiz-adv-x="378" 
d="M-37 140q27 0 46 -21.5t19 -51.5q0 -29 -28 -69.5t-28 -68.5h-18q0 27 -28 67t-28 71q0 30 19 51.5t46 21.5zM133 140q27 0 46 -21.5t19 -51.5q0 -29 -28 -69.5t-28 -68.5h-18q0 27 -28 67t-28 71q0 30 19 51.5t46 21.5z" />
    <glyph glyph-name="bullet" unicode="&#x2022;" horiz-adv-x="536" 
d="M0 598q0 52 37 89t90 37t90 -37t37 -89t-37 -89.5t-90 -37.5t-90 37.5t-37 89.5z" />
    <glyph glyph-name="ellipsis" unicode="&#x2026;" horiz-adv-x="778" 
d="M-29 146q30 0 51.5 -21.5t21.5 -51.5t-21.5 -51.5t-51.5 -21.5t-51.5 21.5t-21.5 51.5t21.5 51.5t51.5 21.5zM248 146q30 0 51.5 -21.5t21.5 -51.5t-21.5 -51.5t-51.5 -21.5t-52 21.5t-22 51.5t22 51.5t52 21.5zM524 146q30 0 51.5 -21.5t21.5 -51.5t-21.5 -51.5
t-51.5 -21.5t-51.5 21.5t-21.5 51.5t21.5 51.5t51.5 21.5z" />
    <glyph glyph-name="Euro" unicode="&#x20ac;" horiz-adv-x="1507" 
d="M773 1229q128 0 241.5 -34.5t193.5 -98.5v-194q-11 28 -32 58t-59 64t-85 61t-115 44.5t-144 17.5q-177 0 -314.5 -117t-178.5 -293h20h277q31 0 60 17v-116q-29 17 -60 17h-277h-33q-2 -28 -2 -41q0 -28 3 -53h68h241q31 0 60 17v-116q-29 17 -60 17h-295
q44 -173 180.5 -287.5t310.5 -114.5q77 0 143.5 18t111.5 44.5t83 63.5t59 69t38 66v-194q-58 -59 -171.5 -103.5t-263.5 -44.5q-216 0 -382.5 137t-212.5 346h-119q-30 0 -59 -17v116q29 -17 60 -17h105q-2 34 -2 53q0 13 2 41h-105q-31 0 -60 -17v116q29 -17 60 -17h115
q43 212 211 352t387 140z" />
    </font>
</defs>
</svg>
